Concerts

Kiss Symphony[2003]DVDrip[Eng]AC3[5 1] Atlas47

  • Download 5x Faster
  • Download torrent
  • Direct Download
  • Rate this torrent +  |  -
Kiss Symphony[2003]DVDrip[Eng]AC3[5 1] Atlas47

Free and Direct Download with Usenet.nl 300GB+ free


Torrent info

Name:Kiss Symphony[2003]DVDrip[Eng]AC3[5 1] Atlas47

Total Size: 1.37 GB

Magnet: Magnet Link

Seeds: 4

Leechers: 2

Stream: Watch Online @ Movie4u

Last Updated: 2011-01-08 22:44:26 (Update Now)

Torrent added: 2009-09-01 02:37:14





Torrent Files List


Covers (Size: 1.37 GB) (Files: 4)

 Covers

  Kiss Symphony.jpg

152.98 KB

 Kiss - Symphony.avi

1.37 GB

 Kiss - Symphony.nfo

12.38 KB

 Torrent_downloaded_from_Demonoid.com.txt

0.05 KB
 

Announce URL: http://tracker.thepiratebay.org:80/announce

Torrent description


±±±±±±±±±±±±±±±±±±±±±±±±±±±±±±±±±±±±±±±±±±±±±±±±±±±±±±±±±±±±±±±±±±±±±±±±±±±±±±±±
± ±
± INFO: ±
± ±
± General ±
± Complete name : Kiss - Symphony ±
± Format : AVI ±
± Format/Info : Audio Video Interleave ±
± File size : 1.37 GiB ±
± Duration : 1h 52mn ±
± Overall bit rate : 1 735 Kbps ±
± Writing application : VirtualDubMod 1.5.4.1 (build 2178/release)±
± Writing library : VirtualDubMod build 2178/release ±
± ±
± Video ±
± Format : MPEG-4 Visual ±
± Format settings, BVOP : Yes ±
± Format settings, QPel : No ±
± Format settings, GMC : No warppoints ±
± Format settings, Matrix : Default ±
± Codec ID : DX50 ±
± Codec ID/Hint : DivX 5 ±
± Duration : 1h 52mn ±
± Bit rate : 1 279 Kbps ±
± Width : 560 pixels ±
± Height : 320 pixels ±
± Display aspect ratio : 16/9 ±
± Frame rate : 25.000 fps ±
± Resolution : 24 bits ±
± Colorimetry : 4:2:0 ±
± Scan type : Progressive ±
± Bits/(Pixel*Frame) : 0.286 ±
± Stream size : 1.01 GiB (74%) ±
± Writing library : DivX 2816 ±
± ±
± Audio ±
± Format : AC-3 ±
± Format / Info : Audio Coding 3 ±
± Codec ID : 2000 ±
± Duration : 1h 52mn ±
± Bit rate mode : Constant ±
± Bit rate : 448 Kbps ±
± Channel(s) : 6 channels ±
± Channel positions : Front: L C R, Surround: L R, LFE ±
± Sampling rate : 48.0 KHz ±
± Stream size : 362 MiB (26%) ±
± Alignment : Split accross interleaves ±
± Interleave, duration : 80 ms (2.00 video frame) ±
± Interleave, preload duration : 500 ms ±
± ±
± ±
± Language : English ±
± ±
± IMDb Rating : 8.3/10 ±
± IMDb URL : http://www.imdb.com/title/tt0385815/ ±
± ±
±°°°°°°°°°°°°°°°°°°°°°°°°°°°°°°°°°°°°°°°°°°°°°°°°°°°°°°°°°°°°°°°°°°°°°°°°°°°°°°±
± ±
± Track Listing ±
± ±
± ACT I ACT III ±
± ±
± Deuce Detroit Rock City ±
± Strutter King Of The Night Time World ±
± Let Me Go Rock & Roll Do You Love Me ±
± Lick It Up Shout It Out Loud ±
± Calling Dr Love God Of Thunder ±
± Psycho Circus Love Gun ±
± Black Diamond ±
± Great Expectations ±
± ACT II I Was Made For Lovin' You ±
± Rock And Roll All Night ±
± Beth ±
± Forever ±
± Goin' Blind ±
± Sure Know Something ±
± Shandi ±
± ±
± ±
± ±
± ±
± ±
± ±
± ±
± ±
± ±
± ±
±°°°°°°°°°°°°°°°°°°°°°°°°°°°°°°°°°°°°°°°°°°°°°°°°°°°°°°°°°°°°°°°°°°°°°°°°°°°°°°±
± ±
± CAST: ±
± ±
± Peter Criss ±
± Gene Simmons ±
± Paul Stanley ±
± Tommy Thayer ±
± ±
±°°°°°°°°°°°°°°°°°°°°°°°°°°°°°°°°°°°°°°°°°°°°°°°°°°°°°°°°°°°°°°°°°°°°°°°°°°°°°°±
± ±
± Please remember to seed ±
± ±
± Seeding is good for the soul ±
± ±
± www.tornster.com ±
± ±
±±±±±±±±±±±±±±±±±±±±±±±±±±±±±±±±±±±±±±±±±±±±±±±±±±±±±±±±±±±±±±±±±±±±±±±±±±±±±±±±

related torrents

Torrent name

health leech seeds Size
 

comments (0)

Main Menu