TV - Other

Millionaire Hot Seat Aussie TV Game 31 08 2009

  • Download 5x Faster
  • Download torrent
  • Direct Download
  • Rate this torrent +  |  -
Millionaire Hot Seat Aussie TV Game 31 08 2009

Anonymous and Free Direct Download 300GB+


Torrent info

Name:Millionaire Hot Seat Aussie TV Game 31 08 2009

Total Size: 210.50 MB

Magnet: Magnet Link

Seeds: 1

Leechers: 3

Stream: Watch Online @ Movie4u

Last Updated: 2010-02-17 17:31:36 (Update Now)

Torrent added: 2009-09-01 02:36:17



VPN For Torrents

Torrent Files List


Millionaire Hot Seat - 31-08-2009.avi (Size: 210.50 MB) (Files: 1)

 Millionaire Hot Seat - 31-08-2009.avi

210.50 MB
 

Announce URL: http://greekadiko.biz:2710/753a2cdee4174c562ce74fd5c85034f9/announce

Torrent description

Millionaire Hot Seat   Aussie TV Game   31 08 2009 preview 0


Australian TV Game where people can win $1.000.000!




General
Complete name : Millionaire Hot Seat - 31-08-2009.avi
Format : AVI
Format/Info : Audio Video Interleave
File size : 211 MiB
Duration : 26mn 11s
Overall bit rate : 1 124 Kbps
Writing application : VirtualDubMod 1.5.4.1 (build 2178/release)
Writing library : VirtualDubMod build 2178/release

Video
ID : 0
Format : MPEG-4 Visual
Format profile : Streaming [email protected]
Format settings, BVOP : Yes
Format settings, QPel : No
Format settings, GMC : No warppoints
Format settings, Matrix : Default (H.263)
Muxing mode : Packed bitstream
Codec ID : XVID
Codec ID/Hint : XviD
Duration : 26mn 11s
Bit rate : 924 Kbps
Width : 720 pixels
Height : 416 pixels
Display aspect ratio : 16/9
Frame rate : 25.000 fps
Resolution : 24 bits
Colorimetry : 4:2:0
Scan type : Progressive
Bits/(Pixel*Frame) : 0.123
Stream size : 173 MiB (82%)
Writing library : XviD 1.2.1 (UTC 2008-12-04)

Audio
ID : 1
Format : MPEG Audio
Format version : Version 1
Format profile : Layer 3
Codec ID : 55
Codec ID/Hint : MP3
Duration : 26mn 11s
Bit rate mode : Constant
Bit rate : 192 Kbps
Channel(s) : 2 channels
Sampling rate : 44.1 KHz
Resolution : 16 bits
Stream size : 36.0 MiB (17%)
Alignment : Split accross interleaves
Interleave, duration : 80 ms (2.00 video frames)
Interleave, preload duration : 500 ms

related torrents

Torrent name

health leech seeds Size
 


comments (0)

Main Menu