Top Gear

Top Gear Aussie TV 31 08 2009

  • Download 5x Faster
  • Download torrent
  • Direct Download
  • Rate this torrent +  |  -
Top Gear Aussie TV 31 08 2009

Anonymous and Free Direct Download 300GB+


Torrent info

Name:Top Gear Aussie TV 31 08 2009

Total Size: 511.05 MB

Magnet: Magnet Link

Seeds: 0

Leechers: 0

Stream: Watch Online @ Movie4u

Last Updated: 2016-03-01 01:21:50 (Update Now)

Torrent added: 2009-09-01 02:36:16



VPN For Torrents

Torrent Files List


Top Gear - 31-08-2009_agk.avi (Size: 511.05 MB) (Files: 7)

 Top Gear - 31-08-2009_agk.avi

510.63 MB

 poster.png

289.25 KB

 01.jpg

45.69 KB

 05.jpg

27.41 KB

 04.jpg

23.51 KB

 02.jpg

23.49 KB

 03.jpg

21.10 KB
 

Announce URL:

Torrent description

Top Gear   Aussie TV   31 08 2009 preview 0


Aired by SBS Channel Australia on 31-08-2009


General
Complete name : Top Gear - 31-08-2009.avi
Format : AVI
Format/Info : Audio Video Interleave
File size : 511 MiB
Duration : 50mn 23s
Overall bit rate : 1 417 Kbps
Writing application : VirtualDubMod 1.5.4.1 (build 2178/release)
Writing library : VirtualDubMod build 2178/release

Video
ID : 0
Format : MPEG-4 Visual
Format profile : Streaming [email protected]
Format settings, BVOP : Yes
Format settings, QPel : No
Format settings, GMC : No warppoints
Format settings, Matrix : Default (H.263)
Muxing mode : Packed bitstream
Codec ID : XVID
Codec ID/Hint : XviD
Duration : 50mn 23s
Bit rate : 1 217 Kbps
Width : 720 pixels
Height : 416 pixels
Display aspect ratio : 16/9
Frame rate : 25.000 fps
Resolution : 24 bits
Colorimetry : 4:2:0
Scan type : Progressive
Bits/(Pixel*Frame) : 0.163
Stream size : 439 MiB (86%)
Writing library : XviD 1.2.1 (UTC 2008-12-04)

Audio
ID : 1
Format : MPEG Audio
Format version : Version 1
Format profile : Layer 3
Codec ID : 55
Codec ID/Hint : MP3
Duration : 50mn 23s
Bit rate mode : Constant
Bit rate : 192 Kbps
Channel(s) : 2 channels
Sampling rate : 44.1 KHz
Resolution : 16 bits
Stream size : 69.2 MiB (14%)
Alignment : Split accross interleaves
Interleave, duration : 80 ms (2.00 video frames)
Interleave, preload duration : 500 ms







Screenshots:

Top Gear   Aussie TV   31 08 2009 preview 1
Top Gear   Aussie TV   31 08 2009 preview 2
Top Gear   Aussie TV   31 08 2009 preview 3
Top Gear   Aussie TV   31 08 2009 preview 4

related torrents

Torrent name

health leech seeds Size
 


comments (0)

Main Menu