Concerts

Iron Maiden Flight 666 The Film [2009][2DVDRip][XviD][WLH]

  • Download 5x Faster
  • Download torrent
  • Direct Download
  • Rate this torrent +  |  -
Iron Maiden Flight 666 The Film [2009][2DVDRip][XviD][WLH]

Anonymous and Direct Download 300GB+ free


Torrent info

Name:Iron Maiden Flight 666 The Film [2009][2DVDRip][XviD][WLH]

Total Size: 2.83 GB

Magnet: Magnet Link

Seeds: 1

Leechers: 1

Stream: Watch Online @ Movie4u

Last Updated: 2015-04-03 13:20:17 (Update Now)

Torrent added: 2009-09-01 02:24:42




Torrent Files List


Pics & Art (Size: 2.83 GB) (Files: 16)

 Pics & Art

  Cover reverse.jpg

2.69 MB

  Cover.jpg

2.32 MB

  DSRG.png

25.67 KB

  DVD 1 Thumbnails.jpg

206.98 KB

  DVD 2 Thumbnails.jpg

210.65 KB

  Inlay Back.jpg

1.14 MB

  Inlay cover.jpg

1.01 MB

  Inlay page 1 & 2.jpg

2.12 MB

  Inlay page 3 & 4.jpg

2.25 MB

  Inlay page 5 & 6.jpg

2.40 MB

 Subtitles

  DVD 1.idx

184.85 KB

  DVD 1.sub

17.21 MB

 Iron Maiden - Flight 666 - Bonus [DVD2].avi

1.22 GB

 Iron Maiden - Flight 666 - The Film [DVD1].avi

1.58 GB

 nfo.txt

5.65 KB

 Torrent_downloaded_from_Demonoid.com.txt

0.05 KB
 

tracker

leech seeds
 

Torrent description

FLIGHT 666 documents the first leg of Maiden's legendary SOMEWHERE BACK IN TIME WORLD TOUR which took them 50,000 miles round the planet playing 23 concerts on five continents in just 45 days. One of the stars of the movie is the band's customized Boeing 757, Ed Force One, which carried the band, all their crew and 12 tons of stage equipment and was piloted by Maiden vocalist Bruce Dickinson, a fully qualified and active Airline Captain with Astraeus Airlines.
Taking you on a visual global tour from Mumbai to Sydney, Tokyo to L.A., Mexico City to Costa Rica, Bogota to Sao Paulo, Buenos Aires and Santiago to New York and Toronto and places in-between, you travel with the band and crew on the plane, to and from shows, in the bar and during leisure time, while experiencing the exhaustion and fan pandemonium that comes with such a mission.

As a very special bonus for the fans, Maiden have included a second disc of the entire set from the 2008 segment of this tour with the DVD. Sixteen songs from sixteen different cities in eleven countries around the world, for the first time ever encompassing such varied places and cultures in one concert.

Flight 666 was welcomed by overwhelmingly positive reviews from the music press and general media. Rock and metal magazines Kerrang! and Metal Hammer each gave the movie full marks, with Kerrang! referring to it as a "unique peek behind the Iron Curtain" that was "not to be missed" and Metal Hammer calling it a "continent-jumping, fire-breathing monster of a film". Outside the music media The Sun gave it 4.5 out of 5, calling it an "outstanding Access All Areas documentary" and going onto say that "if you're not a fan, you will be after this". Empire gave it 4 stars and felt that the behind the scenes antics were interesting, despite lacking in drama when compared to Metallica's rockumentary "Some Kind of Monster". Empire went on to comment on the "magnificent" concert footage. Sky News also referred to it as "a music documentary that really delivers where so many others disappoint". Flight 666 also won the "24 Beats Per Second" award for best music documentary at the SXSW Film Festival in Austin, Texas

LineUp
Steve Harris - bass guitar, backing vocals
Bruce Dickinson - lead vocals
Dave Murray - guitars
Adrian Smith - guitars, backing vocals
Janick Gers - guitars
Nicko McBrain - drums
Michael Kenney - live keyboards

Trivia: Last time Rime Of The Ancient Mariner was played live was during their Somewhere On Tour, 1987; 21 years ago.
First time since their Seventh Tour Of A Seventh Tour they've performed Moonchild live.
First official live recordings from songs Heaven Can Wait, Moonchild and The Clairvoyant, featuring their current line up.



DVD 1
Filename : Iron Maiden - Flight 666 - The Film [DVD 1]
Format : AVI
Original source form : DVD
DVD Release Date: June 9, 2009
File size : 1.58 GiB
Duration : 1h 52mn
Genre : Up The Irons!
IMDB Rating :8.7/10 770 votes
IMDB Link : http://www.imdb.com/title/tt1361558/

Video info :
Format : Xvid (2-pass) MPEG-4 Visual
Bit rate : 1 682 Kbps
Width : 704 pixels
Height : 396 pixels
Display aspect ratio : 16:9
Frame rate : 29.970 fps
Bits/(Pixel*Frame) : 0.201
Stream size : 1.32 GiB (83%)


Audio info :
Format : MPEG Audio Version 1 Layer 3
Bit rate mode :
Bit rate : 320Kbps
Channel(s) : 2 channels
Sampling rate : 48.0 KHz
Resolution : 16 bits
Stream size : 257 MiB (16%)
Alignment : Aligned on interleaves
Interleave duration : 24 ms (0.72 video frame)
Language : English
Subs -English,Spanish,Portugese,Japanese


*************************************************

Iron Maiden - Flight 666 - Bonus [DVD2]

Format : AVI
Original source form : DVD
File size : 1.22 GiB
Duration : 1h 43mn
Genre : Up The Irons!
IMDB Rating :
IMDB Link :

Video info :
Format : Xvid (2-pass) MPEG-4 Visual
Bit rate : 1 361 Kbps
Width : 704 pixels
Height : 396 pixels
Display aspect ratio : 16:9
Frame rate : 29.970 fps
Bits/(Pixel*Frame) : 0.163
Stream size : 1 004 MiB (80%)


Audio info :
Format : MPEG AudioVersion 1, Layer 3
Bit rate : 320Kbps cbr
Channel(s) : 2 channels
Sampling rate : 48.0 KHz
Resolution : 16 bits
Stream size : 236 MiB (19%)
Alignment : Aligned on interleaves
Interleave duration : 24 ms (0.72 video frame)
Language : English


Full Track Listing -
1 - ACES HIGH
Bandra Kurla Complex/Mumbai, India
February 1, 2008

2 - 2 MINUTES TO MIDNIGHT
Rod Laver Arena/Melbourne, Australia
February 7, 2008

3 - REVELATIONS
Acer Arena/Sydney, Australia
February 9, 2008

4 - THE TROOPER
Makuhari Messe/Tokyo, Japan
February 16, 2008

5 - WASTED YEARS
Arena Monterrey/Monterrey, Mexico
February 22, 2008

6 - THE NUMBER OF THE BEAST
The Forum/Los Angeles, USA
February 19, 2008

7 - CAN I PLAY WITH MADNESS
Foro Sol/Mexico City, Mexico
February 24, 2008

8 - RIME OF THE ANCIENT MARINER
Izod Center/New Jersey, USA
March 14, 2008
9 - POWERSLAVE
Saprissa Stadium/San Jose, Costa Rica
February 26, 2008

10 - HEAVEN CAN WAIT
Palmeiras Stadium/Sao Paulo, Brazil
March 2, 2008

11 - RUN TO THE HILLS
Simon Bolivar Park/Bogota, Colombia
February 28, 2008

12 - FEAR OF THE DARK
Ferrocarril Oeste Stadium/Buenos Aires, Argentina
March 7, 2008

13 - IRON MAIDEN
Pista Atletica/Santiago, Chile
March 9, 2008

14 - MOONCHILD
Coliseo de Puerto Rico/San Juan, Puerto Rico
March 12, 2008

15 - THE CLAIRVOYANT
Pedreira Paulo Leminski/Curitiba, Brazil
March 4, 2008

16 - HALLOWED BE THY NAME
Air Canada Centre/Toronto, Canada
March 16, 2008











related torrents

Torrent name

health leech seeds Size
 


comments (0)

Main Menu