Music Videos

Oasis Falling Down DivX

  • Download 5x Faster
  • Download torrent
  • Direct Download
  • Rate this torrent +  |  -
Oasis Falling Down DivX

Download FREE And Anonymously


Torrent info

Name:Oasis Falling Down DivX

Total Size: 46.96 MB

Magnet: Magnet Link

Seeds: 0

Leechers: 0

Stream: Watch Full Movie @ Movie4u

Last Updated: 2015-12-09 00:00:30 (Update Now)

Torrent added: 2009-09-01 02:12:28



VPN For Torrents

Torrent Files List


Oasis - Falling Down- akhiugo.avi (Size: 46.96 MB) (Files: 1)

 Oasis - Falling Down- akhiugo.avi

46.96 MB
 

tracker

leech seeds
 

Torrent description

Falling Down is a song by rock band Oasis, featured on their 2008 seventh studio album Dig Out Your Soul. Written and sung by lead guitarist and principal songwriter Noel Gallagher, it is due to be released as the third single from the album on 9 March 2009, with the digital release ocurring a day earlier.

The song has been cited as Noel Gallagher's most recent and best attempt to emulate the atmosphere of the legendary Beatles track "Tomorrow Never Knows."


Complete name : Oasis - Falling Down- akhiugo.avi
Format : AVI
Format/Info : Audio Video Interleave
File size : 47.0 MiB
Duration : 4mn 57s
Overall bit rate : 1 322 Kbps
Writing application : Lavf51.12.1

Video
Format : MPEG-4 Visual
Format profile : [email protected]
Format settings, BVOP : No
Format settings, QPel : No
Format settings, GMC : No warppoints
Format settings, Matrix : Default
Codec ID : DX50
Codec ID/Hint : DivX 5
Duration : 4mn 57s
Bit rate : 1 181 Kbps
Width : 544 pixels
Height : 246 pixels
Display aspect ratio : 2.2
Frame rate : 25.000 fps
Resolution : 24 bits
Colorimetry : 4:2:0
Scan type : Progressive
Bits/(Pixel*Frame) : 0.353
Stream size : 41.9 MiB (89%)
Writing library : Lavc51.40.4

Audio
Format : MPEG Audio
Format version : Version 1
Format profile : Layer 3
Codec ID : 55
Codec ID/Hint : MP3
Duration : 4mn 57s
Bit rate mode : Constant
Bit rate : 128 Kbps
Channel(s) : 2 channels
Sampling rate : 48.0 KHz
Resolution : 16 bits
Stream size : 4.55 MiB (10%)



Please help your fellow pirates by seeding after download!

related torrents

Torrent name

health leech seeds Size
 


comments (0)

Main Menu

 

script data-cfasync="false" src="//d2ghscazvn398x.cloudfront.net/?cshgd=690275">