Comedy

{ com}Welcome to Sajjanpur 1CD Pre DVD Rip Xvid AC3 M2Tv avi

  • Download 5x Faster
  • Download torrent
  • Direct Download
  • Rate this torrent +  |  -
{ com}Welcome to Sajjanpur 1CD Pre DVD Rip Xvid AC3 M2Tv avi

Anonymous and Free Direct Download 300GB+


Torrent info

Name:{ com}Welcome to Sajjanpur 1CD Pre DVD Rip Xvid AC3 M2Tv avi

Total Size: 710.43 MB

Magnet: Magnet Link

Seeds: 0

Leechers: 0

Stream: Watch Online @ Movie4u

Last Updated: 2015-09-07 09:38:29 (Update Now)

Torrent added: 2009-09-01 01:15:12



VPN For Torrents

Torrent Files List


Welcome to Sajjanpur 1CD Pre DVD Rip Xvid AC3 M2Tv.avi (Size: 710.43 MB) (Files: 1)

 Welcome to Sajjanpur 1CD Pre DVD Rip Xvid AC3 M2Tv.avi

710.43 MB
 

tracker

leech seeds
 

Torrent description

For more information please visit us at
http://www.mastitorrents.com

{ com}Welcome to Sajjanpur 1CD Pre DVD Rip Xvid AC3 M2Tv avi preview 0

[COLOR="Red"]Banner[/COLOR]
UTV Spot Boy

[COLOR="red"]Status[/COLOR]
Released

[COLOR="red"]Release Date[/COLOR]
September 19, 2008

[COLOR="red"]Language[/COLOR]
Hindi

[COLOR="red"]Genre[/COLOR]
N/A

[COLOR="red"]Producer[/COLOR]
Ronnie Screwvala
Zarina Mehta

[COLOR="red"]Executive Producer / Co-Producer[/COLOR]
Chetan Motiwalla

[COLOR="red"]Director[/COLOR]
Shyam Benegal

[COLOR="red"]Star Cast[/COLOR]
Shreyas Talpade...... Mahadev
Amrita Rao...... Kamala
Ravi Kishan...... Ramkumar
Ila Arun...... Mausi
Divya Dutta...... Vindhya
Yashpal Sharma...... Ramsingh
Rajeshwari Sachdev...... Shobharani
Ravi Jhankal...... Munni Bai
Kunal Kapoor...... (Banshi) special appearance
Vallabh Vyas...... School teacher

[COLOR="Red"]Screenshots[/COLOR]
{ com}Welcome to Sajjanpur 1CD Pre DVD Rip Xvid AC3 M2Tv avi preview 1
{ com}Welcome to Sajjanpur 1CD Pre DVD Rip Xvid AC3 M2Tv avi preview 2
{ com}Welcome to Sajjanpur 1CD Pre DVD Rip Xvid AC3 M2Tv avi preview 3
{ com}Welcome to Sajjanpur 1CD Pre DVD Rip Xvid AC3 M2Tv avi preview 4
{ com}Welcome to Sajjanpur 1CD Pre DVD Rip Xvid AC3 M2Tv avi preview 5
{ com}Welcome to Sajjanpur 1CD Pre DVD Rip Xvid AC3 M2Tv avi preview 6
{ com}Welcome to Sajjanpur 1CD Pre DVD Rip Xvid AC3 M2Tv avi preview 7
{ com}Welcome to Sajjanpur 1CD Pre DVD Rip Xvid AC3 M2Tv avi preview 8
{ com}Welcome to Sajjanpur 1CD Pre DVD Rip Xvid AC3 M2Tv avi preview 9

[COLOR="red"]File iNFo[/COLOR]
[CODE]Format : AVI
Format/Info : Audio Video Interleave
File size : 710 MiB
Duration : 2h 13mn
Overal bit rate : 745 Kbps
Writing application : AVI-Mux GUI 1.17.7, Aug 8 2006 20:59:17

Video
Format : MPEG-4 Visual
Format profile : Streaming [email protected]
Format settings, BVOP : Yes
Format settings, QPel : No
Format settings, GMC : No warpoints
Format settings, Matrix : Default
Codec ID : XVID
Codec ID/Hint : XviD
Duration : 2h 13mn
Bit rate : 612 Kbps
Width : 640 pixels
Height : 272 pixels
Display aspect ratio : 2.35
Frame rate : 25.000 fps
Resolution : 8 bits
Colorimetry : 4:2:0
Scan type : Progressive
Bits/(Pixel*Frame) : 0.141
Stream size : 583 MiB
Writing library : XviD 1.2.0.dev47 (UTC 2006-11-01)

Audio
Format : AC-3
Format/Info : Audio Coding 3
Codec ID : 2000
Bit rate mode : Constant
Bit rate : 128 Kbps
Channel(s) : 2 channels
Channel positions : L R
Sampling rate : 48.0 KHz
Stream size : 122 MiB
Title : Welcome To SajjanPur Tc0 L2 2ch 48 64 DELAY 0ms[/CODE]

[COLOR="Red"][SIZE="2"]Credits[/SIZE][/COLOR]
Source =-- Mannu143
Ripper =-- Vrutin @ M2Tv
Give credits to me and team M2Tv Wherever you leech

related torrents

Torrent name

health leech seeds Size
 


comments (0)

Main Menu