Music Videos

Linkin Park feat Chairman Hahn Kyur4 Th Ich

  • Download 5x Faster
  • Download torrent
  • Direct Download
  • Rate this torrent +  |  -
Linkin Park feat Chairman Hahn Kyur4 Th Ich

Free and Direct Download with Usenet 300GB+ free


Torrent info

Name:Linkin Park feat Chairman Hahn Kyur4 Th Ich

Total Size: 57.58 MB

Magnet: Magnet Link

Seeds: 0

Leechers: 0

Stream: Watch Online @ Movie4u

Last Updated: 2010-04-07 02:32:01 (Update Now)

Torrent added: 2009-09-01 00:47:32




Torrent Files List


Linkin Park feat. Chairman Hahn - Kyur4 Th Ich.avi (Size: 57.58 MB) (Files: 1)

 Linkin Park feat. Chairman Hahn - Kyur4 Th Ich.avi

57.58 MB
 

Announce URL: http://vip.tracker.thepiratebay.org/announce

Torrent description

Format : AVI
Format/Info : Audio Video Interleave
File size : 57.6 MiB
Duration : 2mn 33s
Overall bit rate : 3 141 Kbps
Writing application : VirtualDubMod 1.4.13
Writing library : VirtualDub build 14328/release
Video
Format : MPEG-4 Visual
Format profile : Simple Streaming Video@L3
Format settings, BVOP : No
Format settings, QPel : No
Format settings, GMC : 2 warppoints
Format settings, Matrix : Default
Codec ID : XVID
Codec ID/Hint : XviD
Duration : 2mn 33s
Bit rate : 2 809 Kbps
Width : 640 pixels
Height : 348 pixels
Display aspect ratio : 16/9
Frame rate : 29.970 fps
Resolution : 24 bits
Colorimetry : 4:2:0
Scan type : Progressive
Bits/(Pixel*Frame) : 0.421
Stream size : 51.5 MiB (89%)
Writing library : XviD 0.0.09 (UTC 2003-03-25)
Audio
Format : MPEG Audio
Format version : Version 1
Format profile : Layer 3
Codec ID : 55
Codec ID/Hint : MP3
Duration : 2mn 33s
Bit rate mode : Constant
Bit rate : 320 Kbps
Channel(s) : 2 channels
Sampling rate : 48.0 KHz
Resolution : 16 bits
Stream size : 5.87 MiB (10%)
Alignment : Aligned on interleaves
Interleave, duration : 33 ms (1.00 video frame)
Interleave, preload duration : 480 ms

related torrents

Torrent name

health leech seeds Size
 

comments (0)

Main Menu