Sports related

Asp Surfing Teahupoo 2006

  • Download 5x Faster
  • Download torrent
  • Direct Download
  • Rate this torrent +  |  -
Asp Surfing Teahupoo 2006

Anonymous and Direct Download 300GB+ free


Torrent info

Name:Asp Surfing Teahupoo 2006

Total Size: 449.00 MB

Magnet: Magnet Link

Seeds: 0

Leechers: 1

Stream: Watch Online @ Movie4u

Last Updated: 2011-02-04 11:27:34 (Update Now)

Torrent added: 2008-08-18 21:39:06




Torrent Files List


Teahupoo.2006.mp4 (Size: 449.00 MB) (Files: 1)

 Teahupoo.2006.mp4

449.00 MB
 

Announce URL: http://tracker.publicbt.com/announce

Torrent description

Format : MPEG-4
Format profile : Base Media / Version 1
Codec ID : mp41
File size : 449 MiB
Duration : 42mn 54s
Overall bit rate : 1463 Kbps
Encoded date : UTC 2008-08-01 20:08:59
Tagged date : UTC 2008-08-01 20:08:59

Video
Format : MPEG-4 Visual
Format profile : Streaming [email protected]
Format settings, BVOP : Yes
Format settings, QPel : No
Format settings, GMC : No warppoints
Format settings, Matrix : Default
Codec ID : 20
Duration : 42mn 54s
Bit rate mode : Variable
Bit rate : 1297 Kbps
Maximum bit rate : 4269 Kbps
Width : 672 pixels
Height : 416 pixels
Display aspect ratio : 16/9
Frame rate mode : Constant
Frame rate : 25.000 fps
Resolution : 8 bits
Colorimetry : 4:2:0
Scan type : Progressive
Bits/(Pixel*Frame) : 0.186
Stream size : 398 MiB (89%)
Writing library : em4v 4.1.6.5
Language : English
Encoded date : UTC 2008-08-01 20:08:59
Tagged date : UTC 2008-08-01 20:08:59

Audio
Format : AAC
Format/Info : Advanced Audio Codec
Format version : Version 4
Format profile : LC
Format settings, SBR : No
Codec ID : 40
Duration : 42mn 54s
Bit rate mode : Variable
Bit rate : 160 Kbps
Maximum bit rate : 170 Kbps
Channel(s) : 2 channels
Channel positions : L R
Sampling rate : 48.0 KHz
Resolution : 16 bits
Stream size : 49.1 MiB (11%)
Encoded date : UTC 2008-08-01 20:08:59

related torrents

Torrent name

health leech seeds Size

SURFING ASP FIJI 2005

0 0 97.72 MB 0
 


comments (0)

Main Menu