Music Videos

Kat Deluna feat Busta Rhymes Run The Show {XVID} [Solly4Life]

  • Download 5x Faster
  • Download torrent
  • Direct Download
  • Rate this torrent +  |  -
Kat Deluna feat Busta Rhymes Run The Show {XVID} [Solly4Life]

Free and Direct Download with Usenet.nl 300GB+ free


Torrent info

Name:Kat Deluna feat Busta Rhymes Run The Show {XVID} [Solly4Life]

Total Size: 64.62 MB

Magnet: Magnet Link

Seeds: 0

Leechers: 0

Stream: Watch Online @ Movie4u

Last Updated: 2010-08-12 23:11:41 (Update Now)

Torrent added: 2009-09-01 00:15:07





Torrent Files List


Kat Deluna feat. Busta Rhymes - Run The Show {XVID} [Solly4Life].rar (Size: 64.62 MB) (Files: 1)

 Kat Deluna feat. Busta Rhymes - Run The Show {XVID} [Solly4Life].rar

64.62 MB
 

Announce URL: http://open.tracker.thepiratebay.org/announce

Torrent description

Visit:
http://blog.bitcomet.com/9744199/


General
Complete name : Kat Deluna feat. Busta Rhymes - Run The Show {XVID} [Solly4Life].avi
Format : AVI
Format/Info : Audio Video Interleave
File size : 65.5 MiB
Duration : 3mn 44s
Overall bit rate : 2 447 Kbps
Writing library : Boilsoft Joiner build 2411/release

Video
Format : MPEG-4 Visual
Format profile : Streaming [email protected]
Format settings, BVOP : Yes
Format settings, QPel : No
Format settings, GMC : No warppoints
Format settings, Matrix : Default (H.263)
Muxing mode : Packed bitstream
Codec ID : XVID
Codec ID/Hint : XviD
Duration : 3mn 44s
Bit rate : 2 245 Kbps
Width : 640 pixels
Height : 480 pixels
Display aspect ratio : 4/3
Frame rate : 25.000 fps
Resolution : 24 bits
Colorimetry : 4:2:0
Scan type : Interlaced
Scan order : Bottom Field First
Bits/(Pixel*Frame) : 0.292
Stream size : 60.1 MiB (92%)
Writing library : XviD 1.1.2 (UTC 2006-11-01)

Audio
Format : MPEG Audio
Format version : Version 1
Format profile : Layer 3
Codec ID : 55
Codec ID/Hint : MP3
Duration : 3mn 44s
Bit rate mode : Constant
Bit rate : 192 Kbps
Channel(s) : 2 channels
Sampling rate : 48.0 KHz
Resolution : 16 bits
Stream size : 5.14 MiB (8%)
Alignment : Split accross interleaves
Interleave, duration : 40 ms (1.00 video frame)
Interleave, preload duration : 500 ms

related torrents

Torrent name

health leech seeds Size
 

comments (0)

Main Menu