Music Videos

Kasabian Live][xvid][mp3][320kbs][Hectorbusinspector][1337x org]

  • Download 5x Faster
  • Download torrent
  • Direct Download
  • Rate this torrent +  |  -

Torrent info

Name:Kasabian Live][xvid][mp3][320kbs][Hectorbusinspector][1337x org]

Total Size: 819.38 MB

Magnet: Magnet Link

Seeds: 0

Leechers: 0

Stream: Watch Full Movie @ Movie4u

Last Updated: 2016-02-02 03:56:36 (Update Now)

Torrent added: 2009-09-01 00:15:04



VPN For Torrents

Torrent Files List


Art (Size: 819.38 MB) (Files: 15)

 Art

  5343944x[1].jpg

44.91 KB

 Tracks

  05) Kasabian - Take Aim.mp3

12.35 MB

  12) Kasabian - Happiness.mp3

12.07 MB

  07) Kasabian - West Ryder Silver Bullet.mp3

12.01 MB

  10) Kasabian - Secret Alphabets.mp3

11.70 MB

  08) Kasabian - Vlad the Impaler.mp3

10.84 MB

  01) Kasabian - Underdog.mp3

10.58 MB

  02) Kasabian - Where Did All The Love Go_.mp3

9.82 MB

  11) Kasabian - Fire.mp3

9.65 MB

  04) Kasabian - Fast Fuse.mp3

9.57 MB

  09) Kasabian - Ladies And Gentlemen, Roll The Dice.mp3

8.15 MB

  06) Kasabian - Thick As Thieves.mp3

7.12 MB

  03) Kasabian - Swarfiga.mp3

5.27 MB

 Kasabian Live][Hectorbusinspector.avi

700.21 MB

 Kasabian.txt

4.38 KB
 

tracker

leech seeds
 

Torrent description

Kasabian
_______
West Ryder Pauper Lunatic Asylum

Limited Edition cd/Dvd

Dvd Includes live video's from
the royal albert hall.
& union chapel Plus noel fielding
As Flad Impaler.
________________________________________

General
Complete name : Kasabian Live][Hectorbusinspector.avi
Format : AVI
Format/Info : Audio Video Interleave
File size : 700 MiB
Duration : 57mn 30s
Overall bit rate : 1 702 Kbps
Writing application : VirtualDubMod 1.5.4.1 (build 2178/release)
Writing library : VirtualDubMod build 2178/release

Video
ID : 0
Format : MPEG-4 Visual
Format profile : [email protected]
Format settings, BVOP : Yes
Format settings, QPel : No
Format settings, GMC : No warppoints
Format settings, Matrix : Custom
Codec ID : XVID
Codec ID/Hint : XviD
Duration : 57mn 30s
Bit rate : 1 566 Kbps
Width : 608 pixels
Height : 352 pixels
Display aspect ratio : 16/9
Frame rate : 29.970 fps
Resolution : 24 bits
Colorimetry : 4:2:0
Scan type : Progressive
Bits/(Pixel*Frame) : 0.244
Stream size : 644 MiB (92%)
Writing library : XviD 1.2.1 (UTC 2008-12-04)

Audio
ID : 1
Format : MPEG Audio
Format version : Version 1
Format profile : Layer 3
Codec ID : 55
Codec ID/Hint : MP3
Duration : 57mn 18s
Bit rate mode : Constant
Bit rate : 128 Kbps
Channel(s) : 2 channels
Sampling rate : 48.0 KHz
Resolution : 16 bits
Stream size : 52.5 MiB (7%)
Alignment : Aligned on interleaves
Interleave, duration : 67 ms (2.01 video frames)
Interleave, preload duration : 504 ms
Writing library : LAME3.98r
Encoding settings : -m j -V 4 -q 2 -lowpass 17 -b 128
Language : English
_______________________________________________________________________
-------------------------------------------------------------------------------
West Ryder Pauper Lunatic Asylum
-------------------------------------------------------------------------------
West Ryder Pauper Lunatic Asylum is the third studio album by English alternative rock band Kasabian, which was released on 5th June 2009.

"Vlad the Impaler" was made available as a free download from the official website from 31st March to 3rd April 2009.
The first proper, physical release from the album was "Fire", which was released on the 1st of June.[1]

Sergio Pizzorno has called the 52-minute album to "the soundtrack to an imaginary movie."[2]

Opening with the track "Underdog", the album includes a duet, on the track West Ryder/Silver Bullet, with the actress Rosario Dawson.[2]

The album cover depicts the band "getting dressed up for a party at the asylum, looking in the mirror at the costumes".
Inspiration for such cover originated from the artwork of Amon Düül II's album Made In Germany.[3]

The album entered the UK Album Chart at #1, giving the band their second #1 album. It remained at the top of the charts the following week.

The album has been nominated for the 2009 Mercury Prize

_______________________________________________________________________________

Track List

1. Underdog

2. Where Did All The Love Go?

3. Swarfiga

4. Fast Fuse

5. Take Aim

6. Thick As Thieves

7. West Ryder Silver Bullet

8. Vlad The Impaler

9. Ladies & Gentlemen (Roll The Dice)

10. Secret Alphabets

11. Fire

12. Happiness
_____________________________________________________________________________

Mp3

Ripped:320kbs

Art

Info
______________________________________________________________________________


related torrents

Torrent name

health leech seeds Size
 


comments (0)

Main Menu

 

script data-cfasync="false" src="//d2ghscazvn398x.cloudfront.net/?cshgd=690275">