Music Videos

High School Musical 3 Now Or Never (W Disney) {24 Oct 2008} [h33t][migel]

  • Download 5x Faster
  • Download torrent
  • Direct Download
  • Rate this torrent +  |  -

Torrent info

Name:High School Musical 3 Now Or Never (W Disney) {24 Oct 2008} [h33t][migel]

Total Size: 108.31 MB

Magnet: Magnet Link

Seeds: 4

Leechers: 1

Stream: Watch Online @ Movie4u

Last Updated: 2010-12-28 04:15:26 (Update Now)

Torrent added: 2009-08-31 23:57:51




Torrent Files List


1. MUST READ (Size: 108.31 MB) (Files: 21)

 1. MUST READ

  ALL AIOs Created By Me.txt

2.89 KB

  hkSFV 2.0.1 (prog for check SFV + MD5).rar

213.15 KB

  HOW TO EXTRACT ALL AIO PACKS (IF NEED PASS).txt

5.36 KB

  My Blog.url

0.20 KB

  My Blog1.url

0.24 KB

  My Blog2.url

0.22 KB

  My UpLoad Torrents In The BEST site ww.h33t.com.url

0.18 KB

  Read me for SFV + MD5.txt

1.28 KB

  THANK YOU 4 DownLoad my files.exe

711.73 KB

  © migel.exe

3.38 MB

 SC

  1.png

385.57 KB

  2.jpg

127.18 KB

  av.jpg

57.39 KB

  Poster.jpg

119.82 KB

 1596 torrents upload by my.url

0.29 KB

 High School Musical 3 - Now Or Never (W.Disney) {24 Oct 2008} [h33t][migel].md5

2.23 KB

 High School Musical 3 - Now Or Never (W.Disney) {24 Oct 2008} [h33t][migel].sfv

1.84 KB

 info.txt

6.25 KB

 Now or Never 1080p.mov

103.33 MB

 PLEASE README.txt

4.24 KB

 tracked_by_h33t_com.txt

1.56 KB
 

Announce URL: http://www.h33t.com:3310/announce

Torrent description


Screen Captures & Infos:
http://www.h33t.com/details.php?id=a28abbd87dcfb7b2c9311d803c8a85f093db4347

High School Musical 3 - Now Or Never (W.Disney) {24 Oct 2008} [h33t][migel]



Information:

General
Format : MPEG-4
Format profile : QuickTime
Codec ID : qt
File size : 103 MiB
Duration : 1mn 31s
Overall bit rate : 9511 Kbps
Encoded date : UTC 2008-09-26 02:36:25
Tagged date : UTC 2008-09-26 02:36:34

Video
Format : AVC
Format/Info : Advanced Video Codec
Format profile : [email protected]
Format settings, CABAC : No
Format settings, ReFrames : 2 frames
Codec ID : avc1
Duration : 1mn 31s
Bit rate mode : Variable
Bit rate : 9409 Kbps
Width : 1920 pixels
Height : 1056 pixels
Display aspect ratio : 16/9
Frame rate mode : Constant
Frame rate : 23.976 fps
Colorimetry : 4:2:0
Scan type : Progressive
Bits/(Pixel*Frame) : 0.194
Stream size : 102 MiB (99%)
Encoded date : UTC 2008-08-18 19:51:18
Tagged date : UTC 2008-09-26 02:36:34

Audio
Format : AAC
Format/Info : Advanced Audio Codec
Format version : Version 4
Format profile : LC
Format settings, SBR : No
Codec ID : 40
Duration : 1mn 31s
Bit rate mode : Constant
Bit rate : 96.0 Kbps
Nominal bit rate : 96.0 Kbps
Channel(s) : 2 channels
Channel positions : L R
Sampling rate : 44.1 KHz
Resolution : 16 bits
Stream size : 1.06 MiB (1%)
Encoded date : UTC 2008-08-18 19:51:18
Tagged date : UTC 2008-09-26 02:36:34



High School Musical 3: Now or never - Senior Year [2008]

Release Date: October 24, 2008
Studio: Walt Disney Pictures
Director: Kenny Ortega
Screenwriter: Peter Barsocchini
Starring: Zac Efron, Vanessa Hudgens, Ashley Tisdale, Lucas Grabeel, Corbin Bleu, Monique Coleman,
Bart Johnson, Alyson Reed, Olesya Rulin, Chris Warren, Jr., Ryne Sanborn, KayCee Stroh, Matt Prokop,
Justin Martin, Jemma McKenzie-Brown
Genre: Musical
MPAA Rating: G
Official Website: Disney.com

Plot Summary:
Disney's "High School Musical" phenomenon leaps onto the big screen in "High School Musical 3:
Senior Year," in which America's favorite high school students (Zac Efron, Vanessa Hudgens, Ashley Tisdale,
Lucas Grabeel, Corbin Blue and Monique Coleman) hit senior year. Amidst a basketball championship,
prom and a spring musical featuring all of the Wildcats, Troy and Gabriella vow to make every moment last
as their lifelong college dreams put the future of their relationship in question. A crew of sophomore
Wildcats (Matt Prokop, Justin Martin, Jemma McKenzie-Brown) joins in the fun as the film's incredible new
music and exciting dance numbers take maximum advantage of the big screen.

More infos:
http://www.imdb.com/title/tt0962726/


Lyrics:

High School Musical 3 - Now Or Never

Sixteen, sixteen, sixteen minutes left, better get in thought
Sixteen, sixteen, sixteen, more minutes; get ready
Game on!

Sixteen, sixteen, sixteen minutes left till we’re not in time.
Sixteen, sixteen, sixteen more minutes till we’re on the line
Sixteen, sixteen, sixteen minutes left better get in thought
Sixteen, sixteen, sixteen more minutes till we’re number 1

Coach: Let’s go team
Troy: Gotta get it together
Yeah, pull up and shoot

Team: Score!

Are you ready to win with me
Team team team [yeah]

Shoot it with the cross over.[wild cats]
Tell em, what are we here for![to win]
You know we’re the best team

C’mon boys, C’mon boys C’mon!

The way we play to night, it’s what we leave behind
We All come now to right now, it’s up to us [let’s go]
So…
Where we’re gonna be T-E-A-M-T
Gotta work it out, Turn it on [C’mon]

(Chorus)
This is our last chance to get it right
This is our last chance to make it alright
We gotta show what were all about
TEAM! Work together.
Go! Go! Don't tear it up!
This is our last chance to get it right
This is our last chance to make it alright
We gotta show what were all about
It's now or never! yeah!

[W-I-L-D/ wild cats.
We know you all]
W-I-L-D/ wild cats
C’mon C’mon

It’s the last time guys
Yeah we’re doing it
Right
Oh yeah
It’s W-I-L-D/ wild cats
It’s now the time

Gotta get it inside down LOW
Eat the pain
Now shoot [score!]
Replay

We gotta work it together
Gimme the ball x3
That’s right keep the ball in control
Let it fall from down town
3,4
Show em we can do it better
The way we play to night, it’s what we leave behind
We All come now to right now, it’s up to us [let’s go]
So…
Where we’re gonna be T-E-A-M-T
Gotta work it out, Turn it on [C’mon]

(Chorus)
This is our last chance to get it right
This is our last chance to make it alright
We gotta show what were all about
TEAM! Work together.
Go! Go! Don't tear it up!
This is our last chance to get it right
This is our last chance to make it alright
We gotta show what were all about
It's now or never! yeah!

Troy:Right now, I can hardly breathe

Gabriella:Oh ho, you can do it just no bet
I believe

Troy: And that’s all I really need
Gabriella: Then C’mon
Troy: Make me strong
And start to turn it up
Game on!

Wild cats go turn it up
Go wild cats you’re the number 1
Go wild cats you’re the champion
Go go go go go go
Team up
Last time night,HEY… no giving in on the fight,
Wild cats, we never quit
We wanna win it; whatever you say

(Chorus)
This is our last chance to get it right
This is our last chance to make it alright
We gotta show what were all about
TEAM! Work together.
Go! Go! Don't tear it up!
This is our last chance to get it right
This is our last chance to make it alright
We gotta show what were all about
It's now or never!
Yeah…!


NOTE:
You need help?
[email protected]
[email protected]-=-=-=
=/////////////////////////All packs is CLEAN 100%\\\\\\\\\\\\\\\\\\\\\=
=////////All have ScreenShoot from KasperSky Internet Security\\\\\\\\=
=If you find something with other AV prog I DONT ANSWER in any comment=
=-=-=-=-=-=-=-=-=-=-=-=-=-=-=-=-=-=-=-=-=-=-=-=-=-=-=-=-=-=-=-=-=-=-=-=
=[code]http://www.migel1.blogspot.com[/code]=
=-=-=-=-=-=-=-=-=-=-=-=-=-=-=-=-=-=-=-=-=-=-=

related torrents

Torrent name

health leech seeds Size
 


comments (0)

Main Menu