Comedy

Wild Colonial Psychos[Dvdrip]Maka6358 avi

  • Download 5x Faster
  • Download torrent
  • Direct Download
  • Rate this torrent +  |  -
Wild Colonial Psychos[Dvdrip]Maka6358 avi

Free and Direct Download with Usenet.nl 300GB+ free


Torrent info

Name:Wild Colonial Psychos[Dvdrip]Maka6358 avi

Total Size: 700.03 MB

Magnet: Magnet Link

Seeds: 0

Leechers: 0

Stream: Watch Online @ Movie4u

Last Updated: 2010-02-28 17:41:55 (Update Now)

Torrent added: 2009-08-31 23:55:54





Torrent Files List


224504.jpg (Size: 700.03 MB) (Files: 2)

 224504.jpg

19.74 KB

 Wild Colonial Psychos[Dvdrip]Maka6358.avi

700.01 MB
 

Announce URL: http://tracker.thepiratebay.org:80/announce

Torrent description

Anyone wishing to learn some swears, look no further. This live performance by two of Australia?s most notorious celebrities will have you swearing like a sailor in no time.

Shot over the course of one evening?s performance at the Troccadero, and duly edited to remove those tedious lulls and nuances accorded with such a live gig, we have a 76-minute showcase of stories and humourous anecdotes related by these two unabashed Aussie entrepreneurs.

Following Jacko?s lacklustre opening however, we have the enigmatic Australian anti-hero of Mark Brandon Read, affectionately known as ?Chopper?. I must admit to never having heard a comedic set anything like this in all my life. Interspersed with stories of his criminal career and novel atrocities, Read is still rather mesmerising, regardless of some of the brutal content of his monologue. While I sincerely felt queasy regarding some of this, I was still fascinated by this career choice of Chopper?s and the ease with which his story is told. He is neither repentant nor gloating, and in this his diatribe is all the more objective in the telling and perhaps the more truthful. He sounds genuine anyway and also goes into length about the filmmaking process and clears up some misnomers from the film Chopper, in which he was played by Eric Bana.

http://www.dvd.net.au/review.cgi?review_id=3284

General

Complete name : Wild Colonial Psychos[Dvdrip]Maka6358.avi
Format : AVI
Format/Info : Audio Video Interleave
File size : 700 MiB
Duration : 1h 16mn
Overall bit rate : 1 281 Kbps

Video

Format : MPEG-4 Visual
Format profile : Streaming [email protected]
Format settings, BVOP : Yes
Format settings, QPel : No
Format settings, GMC : No warppoints
Format settings, Matrix : Custom
Codec ID : XVID
Codec ID/Hint : XviD
Duration : 1h 16mn
Bit rate : 1 164 Kbps
Width : 528 pixels
Height : 400 pixels
Display aspect ratio : 4/3
Frame rate : 25.000 fps
Resolution : 24 bits
Colorimetry : 4:2:0
Scan type : Progressive
Bits/(Pixel*Frame) : 0.220
Stream size : 636 MiB (91%)
Writing library : XviD 1.2.0.dev47 (UTC 2006-11-01)

Audio

Format : MPEG Audio
Format version : Version 1
Format profile : Layer 3
Codec ID : 55
Codec ID/Hint : MP3
Duration : 1h 16mn
Bit rate mode : Variable
Bit rate : 104 Kbps
Minimum bit rate : 128 Kbps
Channel(s) : 2 channels
Sampling rate : 48.0 KHz
Resolution : 16 bits
Stream size : 56.8 MiB (8%)
Alignment : Aligned on interleaves
Interleave, duration : 24 ms (0.60 video frame)
Interleave, preload duration : 606 ms
Writing library : LAME3.97
Encoding settings : ABR
Language : English

Info Hash : 726B32C56CA145860D31849C70614E8517050DA4

http://tracker.thepiratebay.org:80/announce
http://open.tracker.thepiratebay.org/announce
http://tracker.torrentfr.org:56666/announce
http://www.torrentsnipe.info:2701/announce

related torrents

Torrent name

health leech seeds Size
 

comments (0)

Main Menu