Music Videos

Hatsune Miku Love is War [MoetronSubs][4E067203] mp4 [Jp En sub]

  • Download 5x Faster
  • Download torrent
  • Direct Download
  • Rate this torrent +  |  -
Hatsune Miku Love is War [MoetronSubs][4E067203] mp4 [Jp En sub]

Anonymous and Direct Download 300GB+ free


Torrent info

Name:Hatsune Miku Love is War [MoetronSubs][4E067203] mp4 [Jp En sub]

Total Size: 40.08 MB

Magnet: Magnet Link

Seeds: 1

Leechers: 1

Stream: Watch Online @ Movie4u

Last Updated: 2011-01-04 00:16:21 (Update Now)

Torrent added: 2009-08-31 23:53:52




Torrent Files List


Hatsune Miku - Love is War [MoetronSubs][4E067203].mp4 (Size: 40.08 MB) (Files: 1)

 Hatsune Miku - Love is War [MoetronSubs][4E067203].mp4

40.08 MB
 

Announce URL: http://tracker.torrentbox.com:2710/announce

Torrent description

http://en.wikipedia.org/wiki/Vocaloid

Miku Hatsune - Love is War

---------------------------------------------------------------------------------------------------------

Media Info: [from MediaInfo v0.7.11]
General
Complete name : Hatsune Miku - Love is War [MoetronSubs][4E067203].mp4
Format : MPEG-4
Format profile : Base Media
Codec ID : isom
File size : 40.1 MiB
Duration : 3mn 59s
Overall bit rate : 1 401 Kbps
Encoded date : UTC 2009-01-15 00:10:22
Tagged date : UTC 2009-01-15 00:10:22

Video
ID : 1
Format : AVC
Format/Info : Advanced Video Codec
Format profile : [email protected]
Format settings, CABAC : Yes
Format settings, ReFrames : 1 frame
Codec ID : avc1
Codec ID/Info : Advanced Video Coding
Duration : 3mn 59s
Bit rate mode : Variable
Bit rate : 1 266 Kbps
Maximum bit rate : 3 519 Kbps
Width : 464 pixels
Height : 352 pixels
Display aspect ratio : 4/3
Frame rate mode : Constant
Frame rate : 24.000 fps
Resolution : 24 bits
Colorimetry : 4:2:0
Scan type : Progressive
Bits/(Pixel*Frame) : 0.323
Stream size : 36.2 MiB (90%)
Writing library : x264 core 65 r1074M b6bb3d4
Encoding settings : cabac=1 / ref=1 / deblock=1:0:0 / analyse=0x1:0x111 / me=hex / subme=6
/ psy_rd=1.0:0.0 / mixed_ref=0 / me_range=16 / chroma_me=1 / trellis=0
/ 8x8dct=0 / cqm=0 / deadzone=21,11 / chroma_qp_offset=-2 / threads=1
/ nr=0 / decimate=1 / mbaff=0 / bframes=0 / keyint=250 / keyint_min=25
/ scenecut=40 / rc=2pass / bitrate=1266 / ratetol=1.0 / qcomp=0.60
/ qpmin=10 / qpmax=51 / qpstep=4 / cplxblur=20.0 / qblur=0.5 / ip_ratio=1.40
/ aq=1:1.00
Encoded date : UTC 2009-01-15 00:10:22
Tagged date : UTC 2009-01-15 00:10:29

Audio
ID : 2
Format : AAC
Format/Info : Advanced Audio Codec
Format version : Version 4
Format profile : LC
Format settings, SBR : No
Codec ID : 40
Duration : 3mn 59s
Bit rate mode : Variable
Bit rate : 132.3 Kbps
Maximum bit rate : 158 Kbps
Channel(s) : 2 channels
Channel positions : L R
Sampling rate : 44.1 KHz
Resolution : 16 bits
Stream size : 3.81 MiB (10%)
Encoded date : UTC 2009-01-15 00:10:28
Tagged date : UTC 2009-01-15 00:10:29

---------------------------------------------------------------------------------------------------------

CRC32: [Lupas Rename v5.0]

Codecs:
Download K-Lite Mega Codec Pack (http ://www.free-codecs.com/download/K_Lite_Mega_Codec_Pack.htm)

Media players:
Download Media Player Classic (http ://www.free-codecs.com/download/Media_Player_Classic.htm)
Download KMPlayer (http ://www.free-codecs.com/download/KMPlayer.htm)
Download Gom Player (http ://www.free-codecs.com/download/Gom_Player.htm)

YouTube:
http://www.youtube.com/watch?v=pcfPgTotxPk

related torrents

Torrent name

health leech seeds Size
 


comments (0)

Main Menu