Music Videos

Guzarish Gajhini 6Ch A Creative Quality Rip

  • Download 5x Faster
  • Download torrent
  • Direct Download
  • Rate this torrent +  |  -
Guzarish Gajhini 6Ch A Creative Quality Rip

Free and Direct Download with Usenet.nl 300GB+ free


Torrent info

Name:Guzarish Gajhini 6Ch A Creative Quality Rip

Total Size: 34.97 MB

Magnet: Magnet Link

Seeds: 0

Leechers: 0

Stream: Watch Online @ Movie4u

Last Updated: 2010-11-16 02:03:07 (Update Now)

Torrent added: 2009-08-31 23:50:45





Torrent Files List


Gujarish - Gajhini_6Ch_A Creative Quality Rip.avi (Size: 34.97 MB) (Files: 1)

 Gujarish - Gajhini_6Ch_A Creative Quality Rip.avi

34.97 MB
 

Announce URL: http://desidhamal.com:6883/q285az2arwqfd9y00gt5p6qqrbe4tx4k/announce

Torrent description

Format : AVI
Format/Info : Audio Video Interleave
Format profile : OpenDML
File size : 35.0 MiB
Duration : 2mn 57s
Overall bit rate : 1 656 Kbps
Writing application : AVI-Mux GUI 1.17.7, Aug 8 2006 20:59:17

Video
Format : MPEG-4 Visual
Format profile : Streaming [email protected]
Format settings, BVOP : Yes
Format settings, QPel : No
Format settings, GMC : No warppoints
Format settings, Matrix : Default
Codec ID : XVID
Codec ID/Hint : XviD
Duration : 2mn 57s
Bit rate : 1 199 Kbps
Width : 640 pixels
Height : 272 pixels
Display aspect ratio : 2.35
Frame rate : 29.970 fps
Resolution : 24 bits
Colorimetry : 4:2:0
Scan type : Progressive
Bits/(Pixel*Frame) : 0.230
Stream size : 25.3 MiB (72%)
Writing library : XviD 50

Audio
Format : AC-3
Format/Info : Audio Coding 3
Codec ID : 2000
Bit rate mode : Constant
Bit rate : 448 Kbps
Channel(s) : 6 channels
Channel positions : Front: L C R, Rear: L R, LFE
Sampling rate : 48.0 KHz
Stream size : 9.45 MiB (27%)
Alignment : Aligned on interleaves
Interleave, duration : 64 ms (1.92 video frames)
Interleave, preload duration : 192 ms

Enjoy!!!!!!!!!!!!!!!!

related torrents

Torrent name

health leech seeds Size
 

comments (0)

Main Menu