Comedy

Welcome To Sajjanpur ~ 2008 ~ 1 Cd PreDvD RiP =[Dabas Smash]=

  • Download 5x Faster
  • Download torrent
  • Direct Download
  • Rate this torrent +  |  -

Torrent info

Name:Welcome To Sajjanpur ~ 2008 ~ 1 Cd PreDvD RiP =[Dabas Smash]=

Total Size: 695.49 MB

Magnet: Magnet Link

Seeds: 0

Leechers: 0

Stream: Watch Online @ Movie4u

Last Updated: 2010-09-18 19:22:42 (Update Now)

Torrent added: 2009-08-31 23:37:42



VPN For Torrents

Torrent Files List


Welcome To Sajjanpur ~ 2008 ~ 1.Cd.PreDvD.RiP. -=[Dabas_Smash]=- {Team EXD}.avi (Size: 695.49 MB) (Files: 1)

 Welcome To Sajjanpur ~ 2008 ~ 1.Cd.PreDvD.RiP. -=[Dabas_Smash]=- {Team EXD}.avi

695.49 MB
 

Announce URL: http://mastitorrents.com:2710/0000020241c32991224462c38985b767/announce

Torrent description

for more please visit us at
http://www.mastitorrents.com

[SIZE=4][COLOR=DarkRed]WelCoMe tO sAJjaNpUr~2008~ 1.Cd.PreDvD.RiP-=[Dabas_Smash]=- {Team EXD}[/COLOR][/SIZE]

Welcome To Sajjanpur ~ 2008 ~ 1 Cd PreDvD RiP   =[Dabas Smash]=  preview 0



[CODE]
[SIZE=2][COLOR=DarkRed]General

Format : AVI
Format/Info : Audio Video Interleave
Format profile : OpenDML
File size : 695 MiB
Duration : 2h 13mn
Overall bit rate : 729 Kbps
Writing application : AVI-Mux GUI 1.17.7, Aug 8 2006 20:59:17
Ripper : Dabas_smash*Team_EXD*

Video

Format : MPEG-4 Visual
Format profile : Streaming [email protected]
Format settings, BVOP : Yes
Format settings, QPel : Yes
Format settings, GMC : No warppoints
Format settings, Matrix : Default
Codec ID : XVID
Codec ID/Hint : XviD
Duration : 2h 13mn
Bit rate : 646 Kbps
Width : 608 pixels
Height : 256 pixels
Display aspect ratio : 2.35
Frame rate : 25.000 fps
Resolution : 8 bits
Colorimetry : 4:2:0
Scan type : Progressive
Bits/(Pixel*Frame) : 0.166
Stream size : 616 MiB (89%)
Writing library : XviD 1.2.0.dev47 (UTC 2006-11-01)

Audio

Format : MPEG Audio
Format version : Version 1
Format profile : Layer 3
Codec ID : 55
Codec ID/Hint : MP3
Bit rate mode : Constant
Bit rate : 80.0 Kbps
Minimum bit rate : 80.0 Kbps
Channel(s) : 2 channels
Sampling rate : 32.0 KHz
Resolution : 16 bits
Stream size : 76.3 MiB (11%)
Alignment : Aligned on interleaves
Interleave, duration : 902 ms (22.56 video frames)
Interleave, preload duration : 216 ms
Title : VTS_01_1 Tc0 L2 2ch 48 224 DELAY 0ms
Writing library : LAME3.98
Encoding settings : CBR [/COLOR][/SIZE]
[/CODE]

[COLOR=Magenta]Banner
UTV Spot Boy

Status
Released

Release Date
September 19, 2008

Language
Hindi

Genre
N/A

Producer
Ronnie Screwvala
Zarina Mehta

Executive Producer / Co-Producer
Chetan Motiwalla

Director
Shyam Benegal

Star Cast
Shreyas Talpade...... Mahadev
Amrita Rao...... Kamala
Ravi Kishan...... Ramkumar
Ila Arun...... Mausi
Divya Dutta...... Vindhya
Yashpal Sharma...... Ramsingh
Rajeshwari Sachdev...... Shobharani
Ravi Jhankal...... Munni Bai
Kunal Kapoor...... (Banshi) special appearance
Vallabh Vyas...... School teacher


[SIZE=4][COLOR=Blue]Screenshots[/COLOR][/SIZE]

Welcome To Sajjanpur ~ 2008 ~ 1 Cd PreDvD RiP   =[Dabas Smash]=  preview 1
Welcome To Sajjanpur ~ 2008 ~ 1 Cd PreDvD RiP   =[Dabas Smash]=  preview 2
Welcome To Sajjanpur ~ 2008 ~ 1 Cd PreDvD RiP   =[Dabas Smash]=  preview 3
Welcome To Sajjanpur ~ 2008 ~ 1 Cd PreDvD RiP   =[Dabas Smash]=  preview 4
Welcome To Sajjanpur ~ 2008 ~ 1 Cd PreDvD RiP   =[Dabas Smash]=  preview 5

[/COLOR]


All Credits
[SIZE=3][COLOR=Blue]Ripper : Dabas_Smash *Team_ExD*
Releaser : Dabas_Smash *Team_ExD*
[/COLOR][/SIZE]

Remember : Give Proper Credits to Dabas_Smash & Team ExD !!!

related torrents

Torrent name

health leech seeds Size
 


comments (0)

Main Menu