Comedy

WEDDING CRASHERS xvid[

  • Download 5x Faster
  • Download torrent
  • Direct Download
  • Rate this torrent +  |  -
WEDDING CRASHERS xvid[

Free and Direct Download with Usenet 300GB+ free


Torrent info

Name:WEDDING CRASHERS xvid[

Total Size: 701.44 MB

Magnet: Magnet Link

Seeds: 0

Leechers: 0

Stream: Watch Online @ Movie4u

Last Updated: 2010-05-12 05:47:42 (Update Now)

Torrent added: 2009-08-31 23:28:33




Torrent Files List


NFO.nfo (Size: 701.44 MB) (Files: 52)

 NFO.nfo

3.04 KB

 NFO.sfv

6.54 KB

 Wedding.Crashers[2005]DVDRip.AC3[Eng].r00

14.31 MB

 Wedding.Crashers[2005]DVDRip.AC3[Eng].r01

14.31 MB

 Wedding.Crashers[2005]DVDRip.AC3[Eng].r02

14.31 MB

 Wedding.Crashers[2005]DVDRip.AC3[Eng].r03

14.31 MB

 Wedding.Crashers[2005]DVDRip.AC3[Eng].r04

14.31 MB

 Wedding.Crashers[2005]DVDRip.AC3[Eng].r05

14.31 MB

 Wedding.Crashers[2005]DVDRip.AC3[Eng].r06

14.31 MB

 Wedding.Crashers[2005]DVDRip.AC3[Eng].r07

14.31 MB

 Wedding.Crashers[2005]DVDRip.AC3[Eng].r08

14.31 MB

 Wedding.Crashers[2005]DVDRip.AC3[Eng].r09

14.31 MB

 Wedding.Crashers[2005]DVDRip.AC3[Eng].r10

14.31 MB

 Wedding.Crashers[2005]DVDRip.AC3[Eng].r11

14.31 MB

 Wedding.Crashers[2005]DVDRip.AC3[Eng].r12

14.31 MB

 Wedding.Crashers[2005]DVDRip.AC3[Eng].r13

14.31 MB

 Wedding.Crashers[2005]DVDRip.AC3[Eng].r14

14.31 MB

 Wedding.Crashers[2005]DVDRip.AC3[Eng].r15

14.31 MB

 Wedding.Crashers[2005]DVDRip.AC3[Eng].r16

14.31 MB

 Wedding.Crashers[2005]DVDRip.AC3[Eng].r17

14.31 MB

 Wedding.Crashers[2005]DVDRip.AC3[Eng].r18

14.31 MB

 Wedding.Crashers[2005]DVDRip.AC3[Eng].r19

14.31 MB

 Wedding.Crashers[2005]DVDRip.AC3[Eng].r20

14.31 MB

 Wedding.Crashers[2005]DVDRip.AC3[Eng].r21

14.31 MB

 Wedding.Crashers[2005]DVDRip.AC3[Eng].r22

14.31 MB

 Wedding.Crashers[2005]DVDRip.AC3[Eng].r23

14.31 MB

 Wedding.Crashers[2005]DVDRip.AC3[Eng].r24

14.31 MB

 Wedding.Crashers[2005]DVDRip.AC3[Eng].r25

14.31 MB

 Wedding.Crashers[2005]DVDRip.AC3[Eng].r26

14.31 MB

 Wedding.Crashers[2005]DVDRip.AC3[Eng].r27

14.31 MB

 Wedding.Crashers[2005]DVDRip.AC3[Eng].r28

14.31 MB

 Wedding.Crashers[2005]DVDRip.AC3[Eng].r29

14.31 MB

 Wedding.Crashers[2005]DVDRip.AC3[Eng].r30

14.31 MB

 Wedding.Crashers[2005]DVDRip.AC3[Eng].r31

14.31 MB

 Wedding.Crashers[2005]DVDRip.AC3[Eng].r32

14.31 MB

 Wedding.Crashers[2005]DVDRip.AC3[Eng].r33

14.31 MB

 Wedding.Crashers[2005]DVDRip.AC3[Eng].r34

14.31 MB

 Wedding.Crashers[2005]DVDRip.AC3[Eng].r35

14.31 MB

 Wedding.Crashers[2005]DVDRip.AC3[Eng].r36

14.31 MB

 Wedding.Crashers[2005]DVDRip.AC3[Eng].r37

14.31 MB

 Wedding.Crashers[2005]DVDRip.AC3[Eng].r38

14.31 MB

 Wedding.Crashers[2005]DVDRip.AC3[Eng].r39

14.31 MB

 Wedding.Crashers[2005]DVDRip.AC3[Eng].r40

14.31 MB

 Wedding.Crashers[2005]DVDRip.AC3[Eng].r41

14.31 MB

 Wedding.Crashers[2005]DVDRip.AC3[Eng].r42

14.31 MB

 Wedding.Crashers[2005]DVDRip.AC3[Eng].r43

14.31 MB

 Wedding.Crashers[2005]DVDRip.AC3[Eng].r44

14.31 MB

 Wedding.Crashers[2005]DVDRip.AC3[Eng].r45

14.31 MB

 Wedding.Crashers[2005]DVDRip.AC3[Eng].r46

14.31 MB

 Wedding.Crashers[2005]DVDRip.AC3[Eng].r47

14.31 MB

 Wedding.Crashers[2005]DVDRip.AC3[Eng].r48

490.32 KB

 Wedding.Crashers[2005]DVDRip.AC3[Eng].rar

14.31 MB
 

Announce URL: http://tracker.ilovetorrents.com/announce.php

Torrent description

Wedding Crashers
*******************************************************************************

-------------------------------------------------------------------------------
General Information
-------------------------------------------------------------------------------
Type.................: Movie

John Beckwith and Jeremy Grey, a pair of committed womanizers who sneak into weddings to take advantage of the romantic tinge in the air, find themselves at odds with one another when John meets and falls for Claire Cleary.




-------------------------------------------------------------------------------
Release Notes
-------------------------------------------------------------------------------
General
Complete name :WEDDING CRASHERS\Wedding.Crashers[2005]
DVDRip.AC3[Eng].avi
Format : AVI
Format/Info : Audio Video Interleave
File size : 701 MiB
Duration : 2h 6mn
Overall bit rate : 772 Kbps
Writing application : VirtualDubMod 1.5.4.1 (build 2178/release)
Writing library : VirtualDubMod build 2178/release

Video
Format : MPEG-4 Visual
Format profile : Streaming [email protected]
Format settings, BVOP : Yes
Format settings, QPel : No
Format settings, GMC : No warppoints
Format settings, Matrix : Custom
Codec ID : XVID
Codec ID/Hint : XviD
Duration : 2h 6mn
Bit rate : 649 Kbps
Width : 560 pixels
Height : 240 pixels
Display aspect ratio : 2.35
Frame rate : 23.976 fps
Resolution : 24 bits
Colorimetry : 4:2:0
Scan type : Progressive
Bits/(Pixel*Frame) : 0.201
Stream size : 590 MiB (84%)
Writing library : XviD 1.2.0.dev47 (UTC 2006-11-01)

Audio
Format : MPEG Audio
Format version : Version 1
Format profile : Layer 3
Codec ID : 55
Codec ID/Hint : MP3
Duration : 2h 6mn
Bit rate mode : Constant
Bit rate : 32.0 Kbps
Channel(s) : 2 channels
Sampling rate : 48.0 KHz
Resolution : 16 bits
Stream size : 100 MiB (14%)
Alignment : Aligned on interleaves
Interleave, duration : 24 ms (0.58 video frame)
Interleave, preload duration : 504 ms
Writing library : LAME3.97
Language : English

Link: http://www.imdb.com/title/tt0396269/

related torrents

Torrent name

health leech seeds Size
 

comments (0)

Main Menu