Music Videos

Faithless Insomnia 2005 Re Work

  • Download 5x Faster
  • Download torrent
  • Direct Download
  • Rate this torrent +  |  -
Faithless Insomnia 2005 Re Work

Free and Direct Download with Usenet.nl 300GB+ free


Torrent info

Name:Faithless Insomnia 2005 Re Work

Total Size: 46.95 MB

Magnet: Magnet Link

Seeds: 0

Leechers: 1

Stream: Watch Online @ Movie4u

Last Updated: 2015-09-05 02:13:06 (Update Now)

Torrent added: 2009-08-31 23:22:13





Torrent Files List


Faithless - Insomnia 2005.avi (Size: 46.95 MB) (Files: 2)

 Faithless - Insomnia 2005.avi

46.95 MB

 Torrent downloaded from Demonoid.com.txt

0.05 KB
 

tracker

leech seeds
 

Torrent description

Faithless - Insomnia (Blissy vs. Armand Van Helden 2005 Re-Work)

Edited By - Rollo , Sister Bliss
Edited By [Re-], Tracking By [Overdubs] - Fitch Brothers, The
Keyboards [Additional] - Sister Bliss
Mixed By [Additional] - Gavin Callaghan
Remix - Armand Van Helden

General
Complete name : Faithless - Insomnia 2005.avi
Format : AVI
Format/Info : Audio Video Interleave
File size : 46.9 MiB
Duration : 3mn 21s
Overall bit rate : 1 954 Kbps

Video
Format : MPEG-4 Visual
Format profile : Streaming [email protected]
Format settings, BVOP : Yes
Format settings, QPel : No
Format settings, GMC : No warppoints
Format settings, Matrix : Default
Muxing mode : Packed bitstream
Codec ID : XVID
Codec ID/Hint : XviD
Duration : 3mn 21s
Bit rate : 1 750 Kbps
Width : 720 pixels
Height : 480 pixels
Display aspect ratio : 1.500
Frame rate : 29.970 fps
Standard : NTSC
Resolution : 24 bits
Colorimetry : 4:2:0
Scan type : Progressive
Bits/(Pixel*Frame) : 0.169
Stream size : 42.1 MiB (90%)
Writing library : XviD 1.2.0.dev45 (UTC 2006-07-10)

Audio
Format : MPEG Audio
Format version : Version 1
Format profile : Layer 3
Codec ID : 55
Codec ID/Hint : MP3
Duration : 3mn 21s
Bit rate mode : Constant
Bit rate : 192 Kbps
Channel(s) : 2 channels
Sampling rate : 44.1 KHz
Resolution : 16 bits
Video delay : 26ms
Stream size : 4.61 MiB (10%)
Alignment : Split accross interleaves
Interleave, duration : 33 ms (1.00 video frame)
Title : Audio Stream


Please help your fellow pirates by seding after download!

related torrents

Torrent name

health leech seeds Size
 

comments (0)

Main Menu