Music Videos

Faithless Insomnia 1995

  • Download 5x Faster
  • Download torrent
  • Direct Download
  • Rate this torrent +  |  -
Faithless Insomnia 1995

Anonymous and Direct Download 300GB+ free


Torrent info

Name:Faithless Insomnia 1995

Total Size: 37.36 MB

Magnet: Magnet Link

Seeds: 0

Leechers: 0

Stream: Watch Online @ Movie4u

Last Updated: 2010-09-20 14:31:23 (Update Now)

Torrent added: 2009-08-31 23:22:07




Torrent Files List


Faithless - Insomnia 1995.avi (Size: 37.36 MB) (Files: 2)

 Faithless - Insomnia 1995.avi

37.36 MB

 Torrent downloaded from Demonoid.com.txt

0.05 KB
 

Announce URL: http://inferno.demonoid.com:3407/announce

Torrent description

Insomnia is a song recorded by British dance group Faithless. Released as the band's second single, it became one of their most successful. It was released in 1995 and became a hit in Dance Charts while peaking at #27 in the UK in 1995 and #3 in 1996.

General
Complete name : Faithless - Insomnia 1995.avi
Format : AVI
Format/Info : Audio Video Interleave
File size : 37.4 MiB
Duration : 3mn 38s
Overall bit rate : 1 436 Kbps

Video
Format : MPEG-4 Visual
Format profile : Streaming [email protected]
Format settings, BVOP : Yes
Format settings, QPel : No
Format settings, GMC : No warppoints
Format settings, Matrix : Default
Muxing mode : Packed bitstream
Codec ID : XVID
Codec ID/Hint : XviD
Duration : 3mn 38s
Bit rate : 1 232 Kbps
Width : 720 pixels
Height : 480 pixels
Display aspect ratio : 1.500
Frame rate : 29.970 fps
Standard : NTSC
Resolution : 24 bits
Colorimetry : 4:2:0
Scan type : Progressive
Bits/(Pixel*Frame) : 0.119
Stream size : 32.1 MiB (86%)
Writing library : XviD 1.2.0.dev45 (UTC 2006-07-10)

Audio
Format : MPEG Audio
Format version : Version 1
Format profile : Layer 3
Codec ID : 55
Codec ID/Hint : MP3
Duration : 3mn 38s
Bit rate mode : Constant
Bit rate : 192 Kbps
Channel(s) : 2 channels
Sampling rate : 44.1 KHz
Resolution : 16 bits
Video delay : 26ms
Stream size : 4.99 MiB (13%)
Alignment : Split accross interleaves
Interleave, duration : 33 ms (1.00 video frame)
Title : Audio Stream
Writing library : LAME3.92


Please help your fellow pirates by seeding after download!

related torrents

Torrent name

health leech seeds Size

Faithless Insomnia 1995

0 0 48.09 MB 0
 


comments (0)

Main Menu