Comedy

VIVA MAX (1969) ENGLISH

  • Download 5x Faster
  • Download torrent
  • Direct Download
  • Rate this torrent +  |  -
VIVA MAX (1969) ENGLISH

Free and Direct Download with Usenet.nl 300GB+ free


Torrent info

Name:VIVA MAX (1969) ENGLISH

Total Size: 1.06 GB

Magnet: Magnet Link

Seeds: 0

Leechers: 0

Stream: Watch Online @ Movie4u

Last Updated: 2012-08-17 18:03:53 (Update Now)

Torrent added: 2009-08-31 23:12:53





Torrent Files List


VIVA MAX (1969) ENG.avi (Size: 1.06 GB) (Files: 1)

 VIVA MAX (1969) ENG.avi

1.06 GB
 

Announce URL:

Torrent description

Viva Max! (1969), NOT AVAILABLE ON DVD.

In this comedy, Peter Ustinov heads a star-studded line-up of talent – Jonathan Winters, John Astin, Harry Morgan, Keenan Wynn, Alice Ghostley and Pamela Tiffin. When a bumbling Mexican General (Ustinov) decides to reclaim the Alamo for his country, he boldly leads his army of ragtag men across the U.S. border into Texas. Nobody knows his real mission is to impress a certain senorita who will have nothing to do with him. From the novel by Jim Lehrer. Color, Comedy, 92 Minutes.

For more info: http://www.imdb.com/title/tt0065184/


PLEASE KEEP SEEDING.


Video
Format : MPEG-4 Visual
Bit rate : 1500 Kbps
Width : 640 pixels
Height : 480 pixels
Display aspect ratio : 4/3
Frame rate : 29.970 fps
Original frame rate : 29.969 fps
Resolution : 24 bits
Colorimetry : 4:2:0
Scan type : Progressive
Bits/(Pixel*Frame) : 0.163
Stream size : 996 MiB (91%)
Writing library : Magic0432

Audio
Format : MPEG Audio
Format version : Version 1
Format profile : Layer 3
Codec ID : 55
Codec ID/Hint : MP3
Duration : 1h 32mn
Bit rate mode : Constant
Bit rate : 128 Kbps
Channel(s) : 2 channels
Sampling rate : 44.1 KHz
Resolution : 16 bits
Stream size : 85.0 MiB (8%)
Alignment : Aligned on interleaves
Interleave, duration : 26 ms (0.78 video frame)

related torrents

Torrent name

health leech seeds Size

Max Payne English Cd

0 2 784.00 MB 0
 

comments (0)

Main Menu