Comedy

Van Wilder Freshman Year AC3 5,1 DVDRip[Eng]2009

  • Download 5x Faster
  • Download torrent
  • Direct Download
  • Rate this torrent +  |  -
Van Wilder Freshman Year AC3 5,1 DVDRip[Eng]2009

Free and Direct Download with Usenet.nl 300GB+ free


Torrent info

Name:Van Wilder Freshman Year AC3 5,1 DVDRip[Eng]2009

Total Size: 1.36 GB

Magnet: Magnet Link

Seeds: 0

Leechers: 0

Stream: Watch Online @ Movie4u

Last Updated: 2013-05-29 15:10:49 (Update Now)

Torrent added: 2009-08-31 23:02:00





Torrent Files List


Torrent downloaded from Demonoid.com.txt (Size: 1.36 GB) (Files: 3)

 Torrent downloaded from Demonoid.com.txt

0.05 KB

 Van Wilder-Freshman Year-AC3-5,1-DVDRip[Eng]2009.avi

1.36 GB

 Van Wilder-Freshman Year-AC3-5,1-DVDRip[Eng]2009.txt

3.08 KB
 

Announce URL:

Torrent description

http://www.imdb.com/title/tt1276434/

Also Known As:

Van Wilder 3 (USA) (working title) (USA)
National Lampoon's Van Wilder 3 (USA) (working title)


User Rating:4.4/10 - 302 votes

Comedy

Director:Harvey Glazer

Cast:Jonathan Bennett/Kristin Cavallari/Jerry Shea,and others.

Plot:
Van Wilder: Freshman Year bringing back the charismatic ladies/party man (he did stick around college for seven years after all).
The movie begins with Van Wilder (Jonathan Bennett) graduating from high school and giving an... arousing speech to the graduates
(with the help of the valedictorian). He was supposed to spend the summer in Amsterdam with his father but those plans fell through,
but a good time overseas Van did have. He returns back to U.S. and on the Coolidge College campus in style with two hot women and a
stretch limo. The Dean of Students, Charles Reardon (Kirk Fuller), runs the campus with an iron fist: no drinking, no kissing and
no drugs. He also has a personal hatred for the Wilder clan who are 5 generation legacies at Coolidge....

Info:

General
Complete name : Van Wilder-Freshman Year-AC3-5,1-DVDRip[Eng]2009.avi
Format : AVI
Format/Info : Audio Video Interleave
File size : 1.36 GiB
Duration : 1h 40mn
Overall bit rate : 1 938 Kbps
Writing application : VirtualDubMod 1.5.4.1 (build 2178/release)
Writing library : VirtualDubMod build 2178/release

Video
Format : MPEG-4 Visual
Format profile : [email protected]
Format settings, BVOP : No
Format settings, QPel : No
Format settings, GMC : No warppoints
Format settings, Matrix : Default
Codec ID : XVID
Codec ID/Hint : XviD
Duration : 1h 40mn
Bit rate : 1 481 Kbps
Width : 720 pixels
Height : 416 pixels
Display aspect ratio : 16/9
Frame rate : 23.976 fps
Resolution : 24 bits
Colorimetry : 4:2:0
Scan type : Progressive
Bits/(Pixel*Frame) : 0.206
Stream size : 1.04 GiB (76%)
Writing library : XviD 1.1.2 (UTC 2006-11-01)

Audio
Format : AC-3
Format/Info : Audio Coding 3
Codec ID : 2000
Duration : 1h 40mn
Bit rate mode : Constant
Bit rate : 448 Kbps
Channel(s) : 6 channels
Channel positions : Front: L C R, Surround: L R, LFE
Sampling rate : 48.0 KHz
Stream size : 323 MiB (23%)
Alignment : Split accross interleaves
Interleave, duration : 42 ms (1.00 video frame)
Interleave, preload duration : 500 ms

Enjoy...

related torrents

Torrent name

health leech seeds Size
 

comments (0)

Main Menu