Music Videos

Dj Django Gimme More Gal Dem MEGAMIX x264 2009 NALS

  • Download 5x Faster
  • Download torrent
  • Direct Download
  • Rate this torrent +  |  -
Dj Django Gimme More Gal Dem MEGAMIX x264 2009 NALS

Anonymous and free Direct Download 300GB+


Torrent info

Name:Dj Django Gimme More Gal Dem MEGAMIX x264 2009 NALS

Total Size: 100.75 MB

Magnet: Magnet Link

Seeds: 0

Leechers: 0

Stream: Watch Online @ Movie4u

Last Updated: 2010-09-05 14:30:37 (Update Now)

Torrent added: 2009-08-31 22:52:32



VPN For Torrents

Torrent Files List


dj_django-gimme_more_gal_dem_megamix-x264-2009-NALS.avi (Size: 100.75 MB) (Files: 4)

 dj_django-gimme_more_gal_dem_megamix-x264-2009-NALS.avi

100.74 MB

 dj_django-gimme_more_gal_dem_megamix-x264-2009-NALS.nfo

11.23 KB

 dj_django-gimme_more_gal_dem_megamix-x264-2009-NALS.sfv

0.06 KB

 Torrent downloaded from Demonoid.com.txt

0.05 KB
 

Announce URL: http://inferno.demonoid.com:3407/announce

Torrent description

.___ _____
| | _____/ ____\____ ______
| |/ __/ _ / ___/
| | | | ( <_> )___
|___|___| /__| \____/____ >
/ /





Format : AVI
Format/Info : Audio Video Interleave
File size : 101 MiB
Duration : 9mn 56s
Overal BitRate : 1417 Kbps
Movie name : dj_django-gimme_more_gal_dem_megamix-x264-2009-NALS.avi





Video


Format : AVC
Codec ID : H264
Duration : 4mn 35s
Bit rate : 1215 Kbps
Width : 720 pixels
Height : 540 pixels
Display Aspect ratio : 4/3
Frame rate : 25.000 fps
Standard : PAL
Resolution : 24 bits
Colorimetry : 4:2:0
Bits/(Pixel*Frame) : 0.125
Stream size : 84.4 MiB





Audio


Format : MPEG Audio
Codec ID : 55
Codec ID/Hint : MP3
Duration : 9mn 56s
Bit rate mode : Constant
Bit rate : 192 Kbps
Channel(s) : 2 channels
Sampling rate : 44.1 KHz
Resolution : 16 bits
Stream size : 13.7 MiB

related torrents

Torrent name

health leech seeds Size
 


comments (0)

Main Menu