Comedy

Undercover Blues (1993) DVDrip WS Opt MULTISUBS

  • Download 5x Faster
  • Download torrent
  • Direct Download
  • Rate this torrent +  |  -
Undercover Blues (1993) DVDrip WS Opt MULTISUBS

Free and Direct Download with Usenet.nl 300GB+ free


Torrent info

Name:Undercover Blues (1993) DVDrip WS Opt MULTISUBS

Total Size: 700.93 MB

Magnet: Magnet Link

Seeds: 0

Leechers: 0

Stream: Watch Online @ Movie4u

Last Updated: 0000-00-00 00:00:00 (Update Now)

Torrent added: 2009-08-31 22:49:44





Torrent Files List


Info about this release.txt (Size: 700.93 MB) (Files: 14)

 Info about this release.txt

4.36 KB

 Optional subtitles

  Dansk.rar

666.11 KB

  Deutsch.rar

809.36 KB

  Ellenika.rar

730.85 KB

  English.rar

880.88 KB

  Espanol.rar

690.65 KB

  Francais.rar

664.68 KB

  Italiano.rar

703.87 KB

  Nederlands.rar

610.89 KB

  Norsk (Ikkje nynorsk).rar

649.27 KB

  Notes on subtitle files and burning of discs.txt

2.08 KB

  Suomenkillinen.rar

695.68 KB

  Svenska.rar

677.75 KB

 Undercover Blues (1993) Dennis Quaid (Widescr Opt.MULTISUBS)_Kuth.avi

693.33 MB
 

Announce URL:

Torrent description

Undercover Blues (1993)

Optional subtitles in separate idx/sub files:
Danish, Dutch, English, Finnish, French, German, Greek, Italian, Norwegian, Spanish, Swedish

With Dennis Quaid, Kathleen Turner, Stanley "Muerte" Tucci and Fiona Shaw

One of my first favourite action comedies about a couple on maternity "leave" from their jobs as secret agents.

Widescreen XviD 2-pass 720x400, great stereo AC3.
Burn tested, runs well in both my standalone DivX players.

Format/Info : Audio Video Interleave
File size : 693 MiB
Duration : 1h 26mn
Overal bit rate : 1125 Kbps
Video
Format : MPEG-4 Visual
Format profile : Streaming [email protected]
Format settings, BVOP : Yes
Format settings, QPel : No
Format settings, GMC : No warppoints
Format settings, Matrix : Default
Muxing mode : Packet Bitstream
Codec ID : XVID
Codec ID/Hint : XviD
Duration : 1h 26mn
Bit rate : 987 Kbps
Width : 720 pixels
Height : 400 pixels
Display aspect ratio : 16/9
Frame rate : 25.000 fps
Resolution : 8 bits
Colorimetry : 4:2:0
Scan type : Progressive
Bits/(Pixel*Frame) : 0.137
Stream size : 608 MiB
Writing library : XviD 1.2.0.dev47 (UTC 2006-11-01)

Audio
Format : MPEG Audio
Format version : Version 1
Format profile : Layer 3
Codec ID : 55
Codec ID/Hint : MP3
Duration : 1h 26mn
Bit rate mode : Constant
Bit rate : 128 Kbps
Minimum bit rate : 128 Kbps
Channel(s) : 2 channels
Sampling rate : 48.0 KHz
Resolution : 16 bits
Stream size : 78.9 MiB
Writing library : LAME3.97
Encoding settings : CBR

Source: PAL rental (note that PAL/NTSC will give no problems for avi files).


Thanks to Kuthumi!

Cover image: here

related torrents

Torrent name

health leech seeds Size

Undercover Blues (1993)

0 0 1.00 GB 0

Undercover Blues (1993)

2 1 1.20 GB 0
 

comments (0)

Main Menu