Music Videos

Danity Kane feat Missy Elliott Bad Girl {XVID} [Solly4Life]

  • Download 5x Faster
  • Download torrent
  • Direct Download
  • Rate this torrent +  |  -
Danity Kane feat Missy Elliott Bad Girl {XVID} [Solly4Life]

Anonymous and Direct Download 300GB+ free


Torrent info

Name:Danity Kane feat Missy Elliott Bad Girl {XVID} [Solly4Life]

Total Size: 74.48 MB

Magnet: Magnet Link

Seeds: 0

Leechers: 0

Stream: Watch Online @ Movie4u

Last Updated: 2010-09-26 15:13:38 (Update Now)

Torrent added: 2009-08-31 22:30:15




Torrent Files List


Danity Kane feat. Missy Elliott - Bad Girl {XVID} [Solly4Life].rar (Size: 74.48 MB) (Files: 1)

 Danity Kane feat. Missy Elliott - Bad Girl {XVID} [Solly4Life].rar

74.48 MB
 

Announce URL: http://open.tracker.thepiratebay.org/announce

Torrent description

General
Complete name : Danity Kane feat. Missy Elliott - Bad Girl {XVID} [Solly4Life].avi
Format : AVI
Format/Info : Audio Video Interleave
File size : 75.2 MiB
Duration : 4mn 16s
Overall bit rate : 2 455 Kbps
Writing library : Boilsoft Joiner build 2411/release

Video
Format : MPEG-4 Visual
Format profile : Streaming [email protected]
Format settings, BVOP : Yes
Format settings, QPel : No
Format settings, GMC : No warppoints
Format settings, Matrix : Default (H.263)
Muxing mode : Packed bitstream
Codec ID : XVID
Codec ID/Hint : XviD
Duration : 4mn 16s
Bit rate : 2 253 Kbps
Width : 640 pixels
Height : 480 pixels
Display aspect ratio : 4/3
Frame rate : 25.000 fps
Resolution : 24 bits
Colorimetry : 4:2:0
Scan type : Interlaced
Scan order : Bottom Field First
Bits/(Pixel*Frame) : 0.293
Stream size : 69.0 MiB (92%)
Writing library : XviD 1.1.2 (UTC 2006-11-01)

Audio
Format : MPEG Audio
Format version : Version 1
Format profile : Layer 3
Codec ID : 55
Codec ID/Hint : MP3
Duration : 4mn 16s
Bit rate mode : Constant
Bit rate : 192 Kbps
Channel(s) : 2 channels
Sampling rate : 48.0 KHz
Resolution : 16 bits
Stream size : 5.88 MiB (8%)
Alignment : Split accross interleaves
Interleave, duration : 40 ms (1.00 video frame)
Interleave, preload duration : 500 ms

related torrents

Torrent name

health leech seeds Size
 


comments (0)

Main Menu