Comedy

Tropic Thunder (2008) Xvid with Greek Subtitles OT Greek

  • Download 5x Faster
  • Download torrent
  • Direct Download
  • Rate this torrent +  |  -
Tropic Thunder (2008) Xvid with Greek Subtitles OT Greek

Free and Direct Download with Usenet 300GB+ free


Torrent info

Name:Tropic Thunder (2008) Xvid with Greek Subtitles OT Greek

Total Size: 1.32 MB

Magnet: Magnet Link

Seeds: 0

Leechers: 0

Stream: Watch Online @ Movie4u

Last Updated: 2011-01-08 06:12:49 (Update Now)

Torrent added: 2009-08-31 22:21:24




Torrent Files List


Info & Snapsots (Size: 1.32 MB) (Files: 24)

 Info & Snapsots

  Info

   English Info - Tropic Thunder.rtf

0.45 KB

   Greek Info - Tropic Thunder.doc

1.89 KB

   Media Info.txt

2.04 KB

  Snapsots

   Tropic Thunder_10.jpg

64.19 KB

   Tropic Thunder_11.jpg

57.29 KB

   Tropic Thunder_12.jpg

45.01 KB

   Tropic Thunder_13.jpg

73.63 KB

   Tropic Thunder_14.jpg

69.95 KB

   Tropic Thunder_15.jpg

58.08 KB

   Tropic Thunder_16.jpg

68.60 KB

   Tropic Thunder_17.jpg

66.58 KB

   Tropic Thunder_18.jpg

74.76 KB

   Tropic Thunder_19.jpg

68.10 KB

   Tropic Thunder_20.jpg

66.73 KB

   Tropic Thunder_21.jpg

50.70 KB

   Tropic Thunder_22.jpg

54.01 KB

   Tropic Thunder_23.jpg

56.01 KB

   Tropic Thunder_24.jpg

53.94 KB

   Tropic Thunder_5.jpg

52.67 KB

   Tropic Thunder_6.jpg

56.41 KB

   Tropic Thunder_7.jpg

65.34 KB

   Tropic Thunder_8.jpg

64.61 KB

   Tropic Thunder_9.jpg

66.17 KB

 Tropic Thunder (2009) - Xvid - Omifast Greek.torrent

114.32 KB
 

Announce URL: http://tracker.openbittorrent.com/announce

Torrent description

GREEK SUBTITLES ARE EMBEDDED, YOU CAN NOT TURN THEM OFF.

Movie Sample and Trailer Included
------------------------------------------------------------------------------

Tropic Thunder (2008)
http://www.imdb.com/title/tt0942385/

A group of self-absorbed actors set out to make the most expensive war film. But after ballooning costs force the studio to cancel the movie, the frustrated director refuses to stop shooting, leading his cast into the jungles of Southeast Asia, where they encounter real bad guys.

------------------------------------------------------------------------------

Direct Download, Photo, Trailer, and Full Synopsis in Greek:
www.omifast-mainmovies.blogspot.com

--------------------------------------------------------------------------------

General
Format : AVI
Format/Info : Audio Video Interleave
File size : 700 MiB
Duration : 48mn 13s
Overall bit rate : 2 030 Kbps
Writing application : VirtualDubMod 1.5.4.1 (build 2178/release)
Writing library : VirtualDubMod build 2178/release

Video
ID : 0
Format : MPEG-4 Visual
Format profile : [email protected]
Format settings, BVOP : Yes
Format settings, QPel : No
Format settings, GMC : No warppoints
Format settings, Matrix : Custom
Codec ID : XVID
Codec ID/Hint : XviD
Duration : 48mn 13s
Bit rate : 1 831 Kbps
Width : 736 pixels
Height : 416 pixels
Display aspect ratio : 16:9
Frame rate : 25.000 fps
Resolution : 24 bits
Colorimetry : 4:2:0
Scan type : Progressive
Bits/(Pixel*Frame) : 0.239
Stream size : 632 MiB (90%)
Writing library : XviD 1.2.1 (UTC 2008-12-04)

Audio
ID : 1
Format : AC-3
Format/Info : Audio Coding 3
Codec ID : 2000
Duration : 48mn 13s
Bit rate mode : Constant
Bit rate : 192 Kbps
Channel(s) : 2 channels
Channel positions : L R
Sampling rate : 48.0 KHz
Stream size : 66.2 MiB (9%)
Alignment : Split accross interleaves
Interleave, duration : 96 ms (2.40 video frames)
Interleave, preload duration : 96 ms
Language : English / English / English

!

related torrents

Torrent name

health leech seeds Size
 

comments (0)

Main Menu