Comedy

Torremolinos 73[2003]DvDrip[English subs]Spanish Latino[DXO]

  • Download 5x Faster
  • Download torrent
  • Direct Download
  • Rate this torrent +  |  -
Torremolinos 73[2003]DvDrip[English subs]Spanish Latino[DXO]

Free and Direct Download with Usenet.nl 300GB+ free


Torrent info

Name:Torremolinos 73[2003]DvDrip[English subs]Spanish Latino[DXO]

Total Size: 700.36 MB

Magnet: Magnet Link

Seeds: 1

Leechers: 0

Stream: Watch Online @ Movie4u

Last Updated: 2016-07-11 17:34:06 (Update Now)

Torrent added: 2009-08-31 22:10:36





Torrent Files List


Torremolinos 73 [DVDRip](spanish).www.lokotorrents.com.avi (Size: 700.36 MB) (Files: 1)

 Torremolinos 73 [DVDRip](spanish).www.lokotorrents.com.avi

700.36 MB
 

tracker

leech seeds
 

Torrent description

http://www.imdb.com/title/tt0339806/


SUBTITLES:

http://subscene.com/torremolinos-73/subtitles-67195.aspx



User Rating: 6.7/10 1,371 votes
Director: Pablo Berger
Writer: Pablo Berger (writer)
Release Date: 30 April 2003 (Spain)
Genre: Comedy | Drama
Plot: Set in 1973 Spain, a struggling encyclopedia salesman and his wife take advantage of an offer to make adult films. The act turns him into an aspring legit filmmaker and her into an international sex symbol

Duration: 01:27:28.24, start: 0.000000, bitrate: 1119 kb/s
Stream #0.0: Video: mpeg4, yuv420p, 704x384 [PAR 1:1 DAR 11:6], 25.00 tb(r)
Stream #0.1: Audio: mp3, 48000 Hz, stereo, s16, 192 kb/s

related torrents

Torrent name

health leech seeds Size
 

comments (0)

Main Menu