Comedy

TOP SECRET avi

  • Download 5x Faster
  • Download torrent
  • Direct Download
  • Rate this torrent +  |  -
TOP SECRET avi

Free and Direct Download with Usenet.nl 300GB+ free


Torrent info

Name:TOP SECRET avi

Total Size: 681.86 MB

Magnet: Magnet Link

Seeds: 0

Leechers: 0

Stream: Watch Online @ Movie4u

Last Updated: 2010-02-26 23:35:06 (Update Now)

Torrent added: 2009-08-31 22:09:42





Torrent Files List


Top Secret (Size: 681.86 MB) (Files: 5)

 Top Secret

  Top Secret.avi

681.74 MB

  Top Secret.sub

40.69 KB

 TOP SECRET.torrent

13.80 KB

 Top_Secret-cdcovers_cc-front.jpg

67.37 KB

 tracked_by_h33t_com.txt

0.02 KB
 

Announce URL: http://www.h33t.com:3310/announce

Torrent description

TOP SECRET avi preview 0

subtitrare in limba romana



Complete name : D:\TOP SECRET\Top Secret\Top Secret.avi
Format : AVI
Format/Info : Audio Video Interleave
File size : 682 MiB
Duration : 1h 25mn
Overall bit rate : 1 110 Kbps
Writing application : Nandub v1.0rc2
Writing library : Nandub build 1853/release

Video
Format : MPEG-4 Visual
Codec ID : DIV3
Codec ID/Hint : DivX 3 Low
Duration : 1h 25mn
Bit rate : 970 Kbps
Width : 576 pixels
Height : 304 pixels
Display aspect ratio : 1.895
Frame rate : 23.976 fps
Resolution : 24 bits
Bits/(Pixel*Frame) : 0.231
Stream size : 596 MiB (87%)

Audio
Format : MPEG Audio
Format version : Version 1
Format profile : Layer 3
Codec ID : 55
Codec ID/Hint : MP3
Duration : 1h 25mn
Bit rate mode : Variable
Bit rate : 126 Kbps
Nominal bit rate : 128 Kbps
Channel(s) : 2 channels
Sampling rate : 48.0 KHz
Resolution : 16 bits
Stream size : 77.8 MiB (11%)
Alignment : Aligned on interleaves
Interleave, duration : 24 ms (0.58 video frame)
Interleave, preload duration : 139 ms
Writing library : LAME3.92
Encoding settings : ABR

CEA MAI TARE COMEDIE-PAREREA MEA

related torrents

Torrent name

health leech seeds Size

Top Secret Weapons Revealed (2012)

5054 5999 684.33 MB 0
 

comments (0)

Main Menu