Music Videos

R Kelly Thoia Thoing {XVID} [Solly4Life]

  • Download 5x Faster
  • Download torrent
  • Direct Download
  • Rate this torrent +  |  -
R Kelly Thoia Thoing {XVID} [Solly4Life]

Download FREE And Anonymously


Torrent info

Name:R Kelly Thoia Thoing {XVID} [Solly4Life]

Total Size: 62.28 MB

Magnet: Magnet Link

Seeds: 0

Leechers: 0

Stream: Watch Full Movie @ Movie4u

Last Updated: 2011-01-04 00:37:50 (Update Now)

Torrent added: 2009-08-31 21:46:32



VPN For Torrents

Torrent Files List


R. Kelly - Thoia Thoing {XVID} [Solly4Life].rar (Size: 62.28 MB) (Files: 1)

 R. Kelly - Thoia Thoing {XVID} [Solly4Life].rar

62.28 MB
 

Announce URL: http://open.tracker.thepiratebay.org/announce

Torrent description

Visit:
http://susoftblog.blogspot.com/


General
Complete name :R. Kelly - Thoia Thoing {XVID} [Solly4Life].avi
Format : AVI
Format/Info : Audio Video Interleave
File size : 63.2 MiB
Duration : 3mn 49s
Overall bit rate : 2 309 Kbps
Writing library : Boilsoft Joiner build 2411/release

Video
Format : MPEG-4 Visual
Format profile : Streaming [email protected]
Format settings, BVOP : Yes
Format settings, QPel : No
Format settings, GMC : No warppoints
Format settings, Matrix : Default (H.263)
Muxing mode : Packed bitstream
Codec ID : XVID
Codec ID/Hint : XviD
Duration : 3mn 49s
Bit rate : 2 107 Kbps
Width : 640 pixels
Height : 480 pixels
Display aspect ratio : 4/3
Frame rate : 25.000 fps
Resolution : 24 bits
Colorimetry : 4:2:0
Scan type : Interlaced
Scan order : Bottom Field First
Bits/(Pixel*Frame) : 0.274
Stream size : 57.7 MiB (91%)
Writing library : XviD 1.1.2 (UTC 2006-11-01)

Audio
Format : MPEG Audio
Format version : Version 1
Format profile : Layer 3
Codec ID : 55
Codec ID/Hint : MP3
Duration : 3mn 49s
Bit rate mode : Constant
Bit rate : 192 Kbps
Channel(s) : 2 channels
Sampling rate : 48.0 KHz
Resolution : 16 bits
Stream size : 5.25 MiB (8%)
Alignment : Split accross interleaves
Interleave, duration : 40 ms (1.00 video frame)
Interleave, preload duration : 500 ms

related torrents

Torrent name

health leech seeds Size
 


comments (0)

Main Menu

 

script data-cfasync="false" src="//d2ghscazvn398x.cloudfront.net/?cshgd=690275">