Comedy

The Wackness[2008] Dvdrip Xvid AC3[5 1] RoCK&BlueLadyRG

  • Download 5x Faster
  • Download torrent
  • Direct Download
  • Rate this torrent +  |  -


Torrent info

Name:The Wackness[2008] Dvdrip Xvid AC3[5 1] RoCK&BlueLadyRG

Total Size: 1.41 GB

Magnet: Magnet Link

Seeds: 0

Leechers: 0

Stream: Watch Online @ Movie4u

Last Updated: 2010-09-22 08:56:46 (Update Now)

Torrent added: 2009-08-31 21:42:12



VPN For Torrents

Torrent Files List


The.Wackness[2008].Dvdrip.Xvid.AC3[5.1]-RoCK&BlueLadyRG.avi (Size: 1.41 GB) (Files: 2)

 The.Wackness[2008].Dvdrip.Xvid.AC3[5.1]-RoCK&BlueLadyRG.avi

1.41 GB

 The.Wackness[2008].Dvdrip.Xvid.AC3[5.1]-RoCK&BlueLadyRG.nfo

4.92 KB
 

Announce URL: http://vip.tracker.thepiratebay.org:80/announce

Torrent description


RoCK & BlueLady RG

*******************************************************************************
Proudly presents: The Wackness (2008)
*******************************************************************************

-------------------------------------------------------------------------------
General Information
-------------------------------------------------------------------------------
Type : Movie
Burn Tested : Yes
Subtitles : None
: French/Spanish can be found on http://www.genesis-sp.com

Format : AVI
Format/Info : Audio Video Interleave
File size : 1.41 GiB
Duration : 1h 39mn
Overall bit rate : 2 038 Kbps
Writing application : VirtualDubMod 1.5.10.2 (build 2540/release)
Writing library : VirtualDub build 30009/release

Audio Enlish
Format : AC-3
Format/Info : Audio Coding 3
Codec ID : 2000
Duration : 1h 39mn
Bit rate mode : Constant
Bit rate : 448 Kbps
Channel(s) : 6 channels
Channel positions : Front: L C R, Surround: L R, LFE
Sampling rate : 48.0 KHz
Video delay : 500ms
Stream size : 317 MiB (22%)
Alignment : Split accross interleaves
Interleave, duration : 42 ms (1.00 video frame)
Interleave, preload duration : 500 ms

Video
Format : MPEG-4 Visual
Format settings, BVOP : No
Format settings, QPel : No
Format settings, GMC : No warppoints
Format settings, Matrix : Default
Codec ID : XVID
Codec ID/Hint : XviD
Duration : 1h 39mn
Bit rate : 1 581 Kbps
Width : 720 pixels
Height : 304 pixels
Display aspect ratio : 2.35
Frame rate : 23.976 fps
Resolution : 24 bits
Colorimetry : 4:2:0
Scan type : Progressive
Bits/(Pixel*Frame) : 0.301
Stream size : 1.09 GiB (78%)
Writing library : XviD 1.0.3 (UTC 2004-12-20)

Source : Retail-DVD
Original Format : NTSC
Genre : Comedy | Drama
IMDb Rating : 7.3 (3,796 Votes)
Movie Information : http://www.imdb.com/title/tt1082886/
DVD Retail Date : january 6, 2009

-------------------------------------------------------------------------------
Post Information
-------------------------------------------------------------------------------
Posted by............: RoCK (http://www.genesis-sp.com)
Posted on............: 23-12-2008

-------------------------------------------------------------------------------
Release Notes
-------------------------------------------------------------------------------
It's the summer of 1994, and the streets of New York are pulsing with hip-hop.
Set against this backdrop, a lonely teenager named Luke Shapiro spends his last
summer before university selling marijuana throughout New York City, trading it
with his unorthodox psychotherapist for treatment, while having a crush on his
stepdaughter.

Director: Jonathan Levine

Writer : Jonathan Levine

Cast :

Ben Kingsley ... Dr. Squires
Famke Janssen ... Kristin Squires
Josh Peck ... Luke Shapiro
Olivia Thirlby ... Stephanie
Mary-Kate Olsen ... Union
Jane Adams ... Elanor
Method Man ... Percy
Aaron Yoo ... Justin
Talia Balsam ... Mrs. Shapiro
David Wohl ... Mr. Shapiro
Bob Dishy ... Grandpa Shapiro
Joanna Merlin ... Grandma Shapiro
Shannon Briggs ... Body Guard #1
Roy Milton Davis ... Homeless Man
Alexander Flores ... Kid in Bar

Enjoy this movie!



------------------------------------------------------------------------------------------
Announcement
------------------------------------------------------------------------------------------
I decided to drop the 1cd versions and replace them with movies in MKV format. This means
smaller filesizes with higher quality. The movies you can watch in VLC or download the x264
codec!

If you want to decode it and burn it on dvd use convertxtodvd 3


RoCK.






------------------------------------------------------------------------------------------
You can find us both at: http://www.genesis-sp.com/
------------------------------------------------------------------------------------------

related torrents

Torrent name

health leech seeds Size
 


comments (0)

Main Menu