Music Videos

Pitbull I Know You Want Me

  • Download 5x Faster
  • Download torrent
  • Direct Download
  • Rate this torrent +  |  -
Pitbull I Know You Want Me

Anonymous and Free Direct Download


Torrent info

Name:Pitbull I Know You Want Me

Total Size: 131.43 MB

Magnet: Magnet Link

Seeds: 0

Leechers: 0

Stream: Watch Online @ Movie4u

Last Updated: 0000-00-00 00:00:00 (Update Now)

Torrent added: 2009-08-31 21:32:05



VPN For Torrents

Torrent Files List


Pitbull_-_I_Know_You_Want_Me_(2nafish).mpg (Size: 131.43 MB) (Files: 1)

 Pitbull_-_I_Know_You_Want_Me_(2nafish).mpg

131.43 MB
 

Announce URL: http://tracker.thepiratebay.org/announce

Torrent description

Visit:
http://susoftblog.blogspot.com/

Torrent Found From thepiratebay.org

Info:

Source: TV

General
Complete name : Pitbull_-_I_Know_You_Want_Me_(2nafish).mpg
Format : MPEG-PS
File size : 131 MiB
Duration : 3mn 58s
Overall bit rate : 4 619 Kbps
Writing library : encoded by TMPGEnc MPEG Editor 2.0 Version. 2.2.11.186

Video
ID : 224 (0xE0)
Format : MPEG Video
Format version : Version 2
Format profile : [email protected]
Format settings, Matrix : Default
Duration : 3mn 58s
Bit rate mode : Variable
Bit rate : 4 179 Kbps
Nominal bit rate : 6 125 Kbps
Width : 720 pixels
Height : 480 pixels
Display aspect ratio : 4/3
Frame rate : 29.970 fps
Standard : NTSC
Colorimetry : 4:2:0
Scan type : Interlaced
Scan order : Top Field First
Bits/(Pixel*Frame) : 0.404
Stream size : 119 MiB (90%)
Writing library : TMPGEnc MPEG Editor 2.2.11.186

Audio
ID : 128 (0x80)
Format : AC-3
Format/Info : Audio Coding 3
Duration : 3mn 58s
Bit rate mode : Constant
Bit rate : 256 Kbps
Channel(s) : 2 channels
Channel positions : L R
Sampling rate : 48.0 KHz
Stream size : 7.28 MiB (6%)

related torrents

Torrent name

health leech seeds Size
 


comments (0)

Main Menu