Comedy

The Scout (1994)

  • Download 5x Faster
  • Download torrent
  • Direct Download
  • Rate this torrent +  |  -
The Scout (1994)

Free and Direct Download with Usenet.nl 300GB+ free


Torrent info

Name:The Scout (1994)

Total Size: 693.90 MB

Magnet: Magnet Link

Seeds: 0

Leechers: 0

Stream: Watch Online @ Movie4u

Last Updated: 2013-05-17 19:53:41 (Update Now)

Torrent added: 2009-08-31 21:28:09





Torrent Files List


Info about this release.txt (Size: 693.90 MB) (Files: 4)

 Info about this release.txt

4.47 KB

 Notes on subtitle files.txt

1.68 KB

 Optional English subtitles.rar

1.11 MB

 The Scout (1994) [Brendan Fraser comedy] (DVDrip,Eng+Subs)_Kuth.avi

692.79 MB
 

Announce URL:

Torrent description

The Scout (1994)
DVDrip English with Optional English subtitles in separate idx/sub files.

With Brendan Fraser, Albert Brooks and Dianne Wiest.

Hilarious comedy where Brendan Fraser is living in Mexico for some obscure reasons, and is discovered as the world's greatest baseball player. A talent scout brings him back to the Yankee Stadium in New York. But is he... mentally stable?

"The best comedy-fantasy about baseball ever made." Richard Schickel, TIME.

Widescreen 704x368, 2-pass, great stereo AC3.
Burn tested, runs well in both my standalone DivX players.


Format/Info : Audio Video Interleave
File size : 693 MiB
Duration : 1h 41mn
Overal bit rate : 950 Kbps

Video
Format : MPEG-4 Visual
Format profile : Streaming [email protected]
Format settings, BVOP : Yes
Format settings, QPel : No
Format settings, GMC : No warppoints
Format settings, Matrix : Default
Muxing mode : Packet Bitstream
Codec ID : XVID
Codec ID/Hint : XviD
Duration : 1h 41mn
Bit rate : 813 Kbps
Width : 704 pixels
Height : 368 pixels
Display aspect ratio : 1.913
Frame rate : 23.976 fps
Resolution : 8 bits
Colorimetry : 4:2:0
Scan type : Progressive
Bits/(Pixel*Frame) : 0.131
Stream size : 593 MiB
Writing library : XviD 1.2.0.dev47 (UTC 2006-11-01)

Audio
Format : MPEG Audio
Format version : Version 1
Format profile : Layer 3
Codec ID : 55
Codec ID/Hint : MP3
Duration : 1h 41mn
Bit rate mode : Constant
Bit rate : 128 Kbps
Minimum bit rate : 128 Kbps
Channel(s) : 2 channels
Sampling rate : 48.0 KHz
Resolution : 16 bits
Stream size : 93.3 MiB
Writing library : LAME3.97
Encoding settings : CBR

Source: NTSC IVTC 7.78 GiB (note that PAL/NTSC will give no problems for avi files)


Thanks Kuthumi!

related torrents

Torrent name

health leech seeds Size
 

comments (0)

Main Menu