Comedy

The Rocky Horror Picture Show [Eng] [emandoz 1 gig rip]

  • Download 5x Faster
  • Download torrent
  • Direct Download
  • Rate this torrent +  |  -
The Rocky Horror Picture Show [Eng] [emandoz 1 gig rip]

Anonymous and Free Direct Download 300GB+


Torrent info

Name:The Rocky Horror Picture Show [Eng] [emandoz 1 gig rip]

Total Size: 997.09 MB

Magnet: Magnet Link

Seeds: 0

Leechers: 0

Stream: Watch Online @ Movie4u

Last Updated: 2011-10-27 11:26:59 (Update Now)

Torrent added: 2009-08-31 21:24:44



VPN For Torrents

Torrent Files List


the_rocky_horror_picture_show.mkv (Size: 997.09 MB) (Files: 4)

 the_rocky_horror_picture_show.mkv

995.07 MB

 the_rocky_horror_picture_show.nfo

3.09 KB

 the_rocky_horror_picture_show_subs.rar

2.02 MB

 what_is_a_emandoz_1gig_rip.nfo

1.18 KB
 

Announce URL:

Torrent description

emandoz presents:

The Rocky Horror Picture Show [Eng] [emandoz 1-gig rip]


The Rocky Horror Picture Show
Audio: English
Subs included
Source: PAL DVD

--------------------------------------------------------------------
The Rocky Horror Picture Show (1975)

Video
ID : 1
Format : AVC
Format/Info : Advanced Video Codec
Format profile : [email protected]
Format settings, CABAC : Yes
Format settings, ReFrames : 2 frames
Muxing mode : Container [email protected]
Codec ID : V_MPEG4/ISO/AVC
Duration : 1h 35mn
Bit rate : 924 Kbps
Nominal bit rate : 955 Kbps
Width : 658 pixels
Height : 574 pixels
Display aspect ratio : 1.660
Original display aspect ratio : 1.146
Frame rate : 25.000 fps
Resolution : 24 bits
Colorimetry : 4:2:0
Scan type : Progressive
Bits/(Pixel*Frame) : 0.098
Stream size : 635 MiB (64%)
Writing library : x264 core 65
Encoding settings : cabac=1 / ref=2 / deblock=1:0:0 / analyse=0x1:0x111 / me=umh / subme=6 / psy_rd=1.0:0.0 / mixed_ref=1 / me_range=16 / chroma_me=1 / trellis=0 / 8x8dct=0 / cqm=0 / deadzone=21,11 / chroma_qp_offset=-2 / threads=3 / nr=0 / decimate=1 / mbaff=0 / bframes=2 / b_pyramid=0 / b_adapt=1 / b_bias=0 / direct=1 / wpredb=1 / keyint=250 / keyint_min=25 / scenecut=40(pre) / rc=2pass / bitrate=955 / ratetol=1.0 / qcomp=0.60 / qpmin=10 / qpmax=51 / qpstep=4 / cplxblur=20.0 / qblur=0.5 / ip_ratio=1.40 / pb_ratio=1.30 / aq=1:1.00
Language : English

Audio #1
ID : 2
Format : AC-3
Format/Info : Audio Coding 3
Codec ID : A_AC3
Duration : 1h 35mn
Bit rate mode : Constant
Bit rate : 384 Kbps
Channel(s) : 6 channels
Channel positions : Front: L C R, Surround: L R, LFE
Sampling rate : 48.0 KHz
Stream size : 264 MiB (26%)
Language : English

Audio #2
ID : 3
Format : Vorbis
Format settings, Floor : 1
Codec ID : A_VORBIS
Duration : 1h 35mn
Bit rate mode : Constant
Bit rate : 112 Kbps
Channel(s) : 2 channels
Sampling rate : 48.0 KHz
Stream size : 76.9 MiB (8%)
Writing library : aoTuV Beta 5 (UTC 2006-10-24)
Language : English, Audience Sound

Subs
English, German for the hearing impaired
--------------------------------------------------------------------

related torrents

Torrent name

health leech seeds Size
 


comments (0)

Main Menu