Comedy

The Rocky Horror Picture Show (Xvid)[

  • Download 5x Faster
  • Download torrent
  • Direct Download
  • Rate this torrent +  |  -
The Rocky Horror Picture Show (Xvid)[

Download FREE And Anonymously


Torrent info

Name:The Rocky Horror Picture Show (Xvid)[

Total Size: 678.92 MB

Magnet: Magnet Link

Seeds: 0

Leechers: 0

Stream: Watch Full Movie @ Movie4u

Last Updated: 2010-02-26 14:46:21 (Update Now)

Torrent added: 2009-08-31 21:24:36



VPN For Torrents

Torrent Files List


Rocky Horror Picture Show.nfo (Size: 678.92 MB) (Files: 50)

 Rocky Horror Picture Show.nfo

4.88 KB

 Rocky Horror Picture Show.sfv

6.24 KB

 The Rocky Horror Picture Show.part01.rar

14.31 MB

 The Rocky Horror Picture Show.part02.rar

14.31 MB

 The Rocky Horror Picture Show.part03.rar

14.31 MB

 The Rocky Horror Picture Show.part04.rar

14.31 MB

 The Rocky Horror Picture Show.part05.rar

14.31 MB

 The Rocky Horror Picture Show.part06.rar

14.31 MB

 The Rocky Horror Picture Show.part07.rar

14.31 MB

 The Rocky Horror Picture Show.part08.rar

14.31 MB

 The Rocky Horror Picture Show.part09.rar

14.31 MB

 The Rocky Horror Picture Show.part10.rar

14.31 MB

 The Rocky Horror Picture Show.part11.rar

14.31 MB

 The Rocky Horror Picture Show.part12.rar

14.31 MB

 The Rocky Horror Picture Show.part13.rar

14.31 MB

 The Rocky Horror Picture Show.part14.rar

14.31 MB

 The Rocky Horror Picture Show.part15.rar

14.31 MB

 The Rocky Horror Picture Show.part16.rar

14.31 MB

 The Rocky Horror Picture Show.part17.rar

14.31 MB

 The Rocky Horror Picture Show.part18.rar

14.31 MB

 The Rocky Horror Picture Show.part19.rar

14.31 MB

 The Rocky Horror Picture Show.part20.rar

14.31 MB

 The Rocky Horror Picture Show.part21.rar

14.31 MB

 The Rocky Horror Picture Show.part22.rar

14.31 MB

 The Rocky Horror Picture Show.part23.rar

14.31 MB

 The Rocky Horror Picture Show.part24.rar

14.31 MB

 The Rocky Horror Picture Show.part25.rar

14.31 MB

 The Rocky Horror Picture Show.part26.rar

14.31 MB

 The Rocky Horror Picture Show.part27.rar

14.31 MB

 The Rocky Horror Picture Show.part28.rar

14.31 MB

 The Rocky Horror Picture Show.part29.rar

14.31 MB

 The Rocky Horror Picture Show.part30.rar

14.31 MB

 The Rocky Horror Picture Show.part31.rar

14.31 MB

 The Rocky Horror Picture Show.part32.rar

14.31 MB

 The Rocky Horror Picture Show.part33.rar

14.31 MB

 The Rocky Horror Picture Show.part34.rar

14.31 MB

 The Rocky Horror Picture Show.part35.rar

14.31 MB

 The Rocky Horror Picture Show.part36.rar

14.31 MB

 The Rocky Horror Picture Show.part37.rar

14.31 MB

 The Rocky Horror Picture Show.part38.rar

14.31 MB

 The Rocky Horror Picture Show.part39.rar

14.31 MB

 The Rocky Horror Picture Show.part40.rar

14.31 MB

 The Rocky Horror Picture Show.part41.rar

14.31 MB

 The Rocky Horror Picture Show.part42.rar

14.31 MB

 The Rocky Horror Picture Show.part43.rar

14.31 MB

 The Rocky Horror Picture Show.part44.rar

14.31 MB

 The Rocky Horror Picture Show.part45.rar

14.31 MB

 The Rocky Horror Picture Show.part46.rar

14.31 MB

 The Rocky Horror Picture Show.part47.rar

14.31 MB

 The Rocky Horror Picture Show.part48.rar

6.57 MB
 

Announce URL: http://tracker.ilovetorrents.com/announce.php

Torrent description

Brad and Janet, newly engaged, stumble onto the castle of Dr. Frank-N-Furter during a rainstorm. Taking refuge in the castle, they're present for the doctor's unveiling of his newest creation, Rocky. Over the course of the night, Frank seduces both Brad and Janet, Janet and Rocky become involved biblically, Dr. Everett Scott arrives looking for his son Eddie (whom Frank killed earlier in the film), and it all goes to pot when the guests discover that Frank is actually an alien (a transvestite from the planet Transsexual in the galaxy Transylvania) who's succeeded in creating the Sonic Transducer, "an audio-vibratory physiomolecular transport device" capable of "breaking down solid matter and then projecting it through space and, who knows, perhaps even time itself."

Format : AVI
Format/Info : Audio Video Interleave
File size : 679 MiB
Duration : 1h 35mn
Overall bit rate : 989 Kbps
Writing library : VirtualDub build 10805/release

Video
Format : MPEG-4 Visual
Codec ID : DIV3
Codec ID/Hint : DivX 3 Low
Duration : 1h 35mn
Bit rate : 851 Kbps
Width : 640 pixels
Height : 352 pixels
Display aspect ratio : 16/9
Frame rate : 25.000 fps
Resolution : 24 bits
Bits/(Pixel*Frame) : 0.151
Stream size : 584 MiB (86%)

Audio
Format : MPEG Audio
Format version : Version 1
Format profile : Layer 3
Codec ID : 55
Codec ID/Hint : MP3
Duration : 1h 35mn
Bit rate mode : Constant
Bit rate : 128 Kbps
Channel(s) : 2 channels
Sampling rate : 48.0 KHz
Resolution : 16 bits
Stream size : 87.9 MiB (13%)
Alignment : Split accross interleaves
Interleave, duration : 40 ms (1.00 video frame)
Interleave, preload duration : 445 ms


Link: http://www.imdb.com/title/tt0073629/

related torrents

Torrent name

health leech seeds Size
 


comments (0)

Main Menu

 

script data-cfasync="false" src="//d2ghscazvn398x.cloudfront.net/?cshgd=690275">