Music Videos

Artic Monkeys live At The Apollo][Avi][Hectorbusinspector][1337x org]

  • Download 5x Faster
  • Download torrent
  • Direct Download
  • Rate this torrent +  |  -

Torrent info

Name:Artic Monkeys live At The Apollo][Avi][Hectorbusinspector][1337x org]

Total Size: 700.08 MB

Magnet: Magnet Link

Seeds: 0

Leechers: 0

Stream: Watch Online @ Movie4u

Last Updated: 2016-01-04 08:22:55 (Update Now)

Torrent added: 2009-08-31 20:58:06



SpyOFF VPN

Torrent Files List


ARCTIC_MONKEYS_LIVE_APOLLO (Size: 700.08 MB) (Files: 3)

 ARCTIC_MONKEYS_LIVE_APOLLO

  ARCTIC_MONKEYS_LIVE_APOLLO.avi

700.03 MB

 145500arcticmonkeysdvd[1].jpg

51.24 KB

 Artic Monkey.txt

4.14 KB
 

tracker

leech seeds
 

Torrent description

At the Apollo is a live album and video release by Arctic Monkeys of the final concert of their 2007 world-tour, filmed in Manchester, England.[1][2]

It was filmed on 35mm film and in surround-sound. It was directed by Richard Ayoade and photographed by cinematographer Danny Cohen (This Is England).
It was edited by Nick Fenton (Heima), and produced by Diarmid Scrimshaw (Dead Man's Shoes).[2]

It has been awarded best music DVD 2009 by the NME

The film premiered on UK television on the music channel 4Music on February 19, 2009.
______________________________________________________________________________________________________________________________________________________________________

DVD track listing
1"Brianstorm"
2"This House Is a Circus"
3"Teddy Picker"
4"I Bet You Look Good on the Dancefloor"
5"Dancing Shoes"
6"From the Ritz to the Rubble"
7"Fake Tales of San Francisco"
8"When the Sun Goes Down"
9"Nettles"
10"D Is for Dangerous"
11"Leave Before the Lights Come On"
12"Fluorescent Adolescent"
13"Still Take You Home"
14"Da Frame 2R"
15"Plastic Tramp"
16"505"
17"Do Me a Favour"
18"A Certain Romance"
19"The View from the Afternoon"
20"If You Were There, Beware"

[edit] Bonus Tracks
"Balaclava"
"Bad Woman" (feat. Richard Hawley)
_____________________________________________________________________________________________________________________________________________________________________

General
Complete name : ARCTIC_MONKEYS_LIVE_APOLLO\ARCTIC_MONKEYS_LIVE_APOLLO.avi
Format : AVI
Format/Info : Audio Video Interleave
File size : 700 MiB
Duration : 1h 16mn
Overall bit rate : 1 281 Kbps
Writing application : VirtualDubMod 1.5.4.1 (build 2178/release)
Writing library : VirtualDubMod build 2178/release

Video
ID : 0
Format : MPEG-4 Visual
Format profile : [email protected]
Format settings, BVOP : Yes
Format settings, QPel : No
Format settings, GMC : No warppoints
Format settings, Matrix : Custom
Codec ID : XVID
Codec ID/Hint : XviD
Duration : 1h 16mn
Bit rate : 1 146 Kbps
Width : 608 pixels
Height : 352 pixels
Display aspect ratio : 16/9
Frame rate : 25.000 fps
Resolution : 24 bits
Colorimetry : 4:2:0
Scan type : Progressive
Bits/(Pixel*Frame) : 0.214
Stream size : 626 MiB (89%)
Writing library : XviD 1.2.1 (UTC 2008-12-04)

Audio
ID : 1
Format : MPEG Audio
Format version : Version 1
Format profile : Layer 3
Codec ID : 55
Codec ID/Hint : MP3
Duration : 1h 16mn
Bit rate mode : Constant
Bit rate : 128 Kbps
Channel(s) : 2 channels
Sampling rate : 48.0 KHz
Resolution : 16 bits
Stream size : 69.8 MiB (10%)
Alignment : Aligned on interleaves
Interleave, duration : 80 ms (2.00 video frames)
Interleave, preload duration : 504 ms
Writing library : LAME3.98r
Encoding settings : -m j -V 4 -q 2 -lowpass 17 -b 128
Language : English
___________________________________________________________________________________________________________________________________________________________________________

xvid

Please Keep This Torrent Alive.

___________________________________________________________________________________________________________________________________________________________________________

related torrents

Torrent name

health leech seeds Size
 


comments (0)

Main Menu