Comedy

The Medallion[2003]DVDrip[Eng]AC3[5 1] Atlas47

  • Download 5x Faster
  • Download torrent
  • Direct Download
  • Rate this torrent +  |  -
The Medallion[2003]DVDrip[Eng]AC3[5 1] Atlas47

Anonymous and Free Direct Download 300GB+


Torrent info

Name:The Medallion[2003]DVDrip[Eng]AC3[5 1] Atlas47

Total Size: 1.37 GB

Magnet: Magnet Link

Seeds: 0

Leechers: 0

Stream: Watch Online @ Movie4u

Last Updated: 2010-12-28 06:24:01 (Update Now)

Torrent added: 2009-08-31 20:56:43



VPN For Torrents

Torrent Files List


ResourceRG_NFO_please_read.txt (Size: 1.37 GB) (Files: 6)

 ResourceRG_NFO_please_read.txt

20.91 KB

 The Medallion.avi

1.37 GB

 The Medallion.idx

39.84 KB

 The Medallion.nfo

10.30 KB

 The Medallion.sub

2.47 MB

 Torrent_downloaded_from_Demonoid.com.txt

0.05 KB
 

Announce URL: http://tracker.thepiratebay.org:80/announce

Torrent description


±±±±±±±±±±±±±±±±±±±±±±±±±±±±±±±±±±±±±±±±±±±±±±±±±±±±±±±±±±±±±±±±±±±±±±±±±±±±±±±±
± ±
± INFO: ±
± ±
± General ±
± Complete name : The Medallion ±
± Genre : Action / Comedy / Fantasy / Thriller ±
± Format : AVI ±
± Format/Info : Audio Video Interleave ±
± File size : 1.37 GiB ±
± Duration : 1h 24mn ±
± Overall bit rate : 2 308 Kbps ±
± Writing application : VirtualDubMod 1.5.4.1 (build 2178/release)±
± Writing library : VirtualDubMod build 2178/release ±
± ±
± Video ±
± Format : MPEG-4 Visual ±
± Format settings, BVOP : Yes ±
± Format settings, QPel : No ±
± Format settings, GMC : No warppoints ±
± Format settings, Matrix : Default ±
± Codec ID : DX50 ±
± Codec ID/Hint : DivX 5 ±
± Duration : 1h 24mn ±
± Bit rate : 1 852 Kbps ±
± Width : 704 pixels ±
± Height : 304 pixels ±
± Display aspect ratio : 2.35 ±
± Frame rate : 25.000 fps ±
± Resolution : 24 bits ±
± Colorimetry : 4:2:0 ±
± Scan type : Progressive ±
± Bits/(Pixel*Frame) : 0.346 ±
± Stream size : 1.10 GiB (80%) ±
± Writing library : DivX 2816 ±
± ±
± Audio ±
± Format : AC-3 ±
± Format/Info : Audio Coding 3 ±
± Codec ID : 2000 ±
± Duration : 1h 24mn ±
± Bit rate mode : Constant ±
± Bit rate : 448 Kbps ±
± Channel(s) : 6 channels ±
± Channel positions : Front: L C R, Surround: L R, LFE ±
± Sampling rate : 48.0 KHz ±
± Stream size : 272 MiB (19%) ±
± Alignment : Split accross interleaves ±
± Interleave, duration : 80 ms (2.00 video frames) ±
± Interleave, preload duration : 500 ms ±
± Language : English ±
± Subtitles : English ±
± ±
± IMDb Rating : 4.7/10 ±
± IMDb URL : http://www.imdb.com/title/tt0288045/ ±
± ±
±°°°°°°°°°°°°°°°°°°°°°°°°°°°°°°°°°°°°°°°°°°°°°°°°°°°°°°°°°°°°°°°°°°°°°°°°°°°°°°±
± ±
± Action superstar Jackie Chan combines his high-flying style with state-of- ±
± the-art special effects as he unleashes the power of THE MEDALLION. Chan ±
± plays Hong Kong detective Eddie Yang, who works with the beautiful Interpol ±
± agent Nicole and the bumbling agent Watson to try to rescue a boy from the ±
± clutches of the villainous Snakehead. But when a fatal accident ends his ±
± life, Eddie is brought back to this world with the help of THE MEDALLION and ±
± supercharged! Now empowered with superhuman strength, Eddie sets out to ±
± thwart Snakehead's plan for world domination. ±
± ±
± ±
± ±
±°°°°°°°°°°°°°°°°°°°°°°°°°°°°°°°°°°°°°°°°°°°°°°°°°°°°°°°°°°°°°°°°°°°°°°°°°°°°°°±
± ±
± CAST: ±
± ±
± Jackie Chan................Eddie Yang ±
± Lee Evans..................Arthur Watson ±
± Claire Forlani.............Nicole James ±
± Julian Sands...............Snakehead ±
± John Rhys-Davies...........Cmdr. Hammerstock-Smythe ±
± Anthony Wong...............Lester ±
± Christy Chung..............Charlotte Watson ±
± ±
±°°°°°°°°°°°°°°°°°°°°°°°°°°°°°°°°°°°°°°°°°°°°°°°°°°°°°°°°°°°°°°°°°°°°°°°°°°°°°°±
± ±
± Please remember to seed ±
± ±
± Seeding is good for the soul ±
± ±
±±±±±±±±±±±±±±±±±±±±±±±±±±±±±±±±±±±±±±±±±±±±±±±±±±±±±±±±±±±±±±±±±±±±±±±±±±±±±±±±

related torrents

Torrent name

health leech seeds Size
 


comments (0)

Main Menu