Romance

Random Harvest 1942 dvdrip xvid eng mp3

  • Download 5x Faster
  • Download torrent
  • Direct Download
  • Rate this torrent +  |  -
Random Harvest 1942 dvdrip xvid eng mp3

Anonymous and Free Direct Download


Torrent info

Name:Random Harvest 1942 dvdrip xvid eng mp3

Total Size: 1.35 GB

Magnet: Magnet Link

Seeds: 0

Leechers: 0

Stream: Watch Online @ Movie4u

Last Updated: 2012-04-14 16:02:52 (Update Now)

Torrent added: 2008-08-18 15:49:02



VPN For Torrents

Torrent Files List


1942.Random.Harvest.dvdrip.xvid.eng.mp3.avi (Size: 1.35 GB) (Files: 5)

 1942.Random.Harvest.dvdrip.xvid.eng.mp3.avi

1.35 GB

 poster.jpg

55.98 KB

 Read.Me.nfo

2.74 KB

 Torrent downloaded from Demonoid.com.txt

0.05 KB

 Trackers.txt

0.08 KB
 

Announce URL: http://inferno.demonoid.com:3392/announce

Torrent description

Random Harvest [1942]

IMDb Number: tt0035238
IMDb Link: http://www.imdb.com/title/tt0035238/

IMDb Synopsis

A veteran of World War I marries and settles happily into a tidy, humble life until an accident brings back memories of a former life of wealth and privilege while blocking all recollection of his existence since the war. Thus one man disappears, and another man long missing turns up and claims his vast inheritance. What does his devoted wife, whom he no longer recognizes, do?


Genre: Drama/Romance/Melodrama


Cast

Ronald Colman ... Charles Rainier
Greer Garson ... Paula
Philip Dorn ... Dr. Jonathan Benet
Susan Peters ... Kitty
Henry Travers ... Dr. Sims
Reginald Owen ... 'Biffer'
Bramwell Fletcher... Harrison
Rhys Williams ... Sam
Una O'Connor ... Tobacconist
Aubrey Mather ... Sheldon
Margaret Wycherly... Mrs. Deventer
Arthur Margetson... Chetwynd
Melville Cooper ... George
Alan Napier ... Julian
Jill Esmond ... Lydia


Tech Stuff

Format : AVI
Format/Info : Audio Video Interleave
File size : 1.35 GiB
Duration : 2h 6mn
Overal bit rate : 1526 Kbps

Video
Format : MPEG-4 Visual
Format profile : [email protected]
Format settings, BVOP : No
Format settings, QPel : No
Format settings, GMC : 0 warppoint
Format settings, Matrix : Default
Codec ID : XVID
Codec ID/Hint : XviD
Duration : 2h 6mn
Bit rate : 1385 Kbps
Width : 640 pixels
Height : 480 pixels
Display aspect ratio : 4/3
Frame rate : 29.970 fps
Original frame rate : 29.969 fps
Resolution : 8 bits
Colorimetry : 4:2:0
Scan type : Progressive
Bits/(Pixel*Frame) : 0.150
Stream size : 1.22 GiB
Writing library : Magic0432

Audio
Format : MPEG Audio
Format version : Version 1 / Layer 3
Codec ID : 55
Codec ID/Hint : MP3
Duration : 2h 6mn
Bit rate mode : CBR
Bit rate : 128 Kbps
Channel(s) : 2 channels
Sampling rate : 44.1 KHz
Resolution : 16 bits
Stream size : 116 MiB
Writing library : LAME3.97

related torrents

Torrent name

health leech seeds Size

Random Harvest (1942)

0 0 1.00 GB 0
 


comments (0)

Main Menu