Comedy

THE FULL MONTY AH 264 RIP BY JOCKTHERIPPER&KIDZCORNER

  • Download 5x Faster
  • Download torrent
  • Direct Download
  • Rate this torrent +  |  -
THE FULL MONTY AH 264 RIP BY JOCKTHERIPPER&KIDZCORNER

Anonymous and Free Direct Download 300GB+


Torrent info

Name:THE FULL MONTY AH 264 RIP BY JOCKTHERIPPER&KIDZCORNER

Total Size: 694.25 MB

Magnet: Magnet Link

Seeds: 0

Leechers: 0

Stream: Watch Online @ Movie4u

Last Updated: 2017-08-06 20:45:06 (Update Now)

Torrent added: 2009-08-31 20:24:35



VPN For Torrents

Torrent Files List


front.jpg (Size: 694.25 MB) (Files: 3)

 front.jpg

24.19 KB

 MAIN MOVIE.mp4

694.23 MB

 Torrent downloaded from Demonoid.com.txt

0.05 KB
 

Announce URL:

Torrent description

Dole queue, Job Club, domestic discord - the world is falling apart for six unemployed Sheffield steelworkers. But one of them has had enough. Determined to beat the system, Gaz (Carlyle) hatches a plan that will make him and his friends serious rich - and quickly! He convinces them that a strip routine will bring in the punters, especially when that act reveals the ultimate - the Full Monty! As our local heroes prepare for the big night word gets round that a very special act is about to storm the clubs of steel city.

Director Peter Cattaneo combines black comedy, roaring hilarity and all the absurdity, heartache and pathos of six men trying to keep body, soul and dignity together. Well, just about! The most successful British film of all time, The Full Monty, also boasts a superb soundtrack, with hits by Hot Chocolate
and Tom Jones.

This is British drama at its funniest!


General
Complete name : C:\Users\joker\Documents\THE FULL MONTY-AH.264 RIP BY JOCKTHERIPPER&KIDZCORNER\MAIN MOVIE.mp4
Format : MPEG-4
Format profile : Base Media / Version 2
Codec ID : mp42
File size : 694 MiB
Duration : 1h 27mn
Overall bit rate : 1 104 Kbps
Encoded date : UTC 2009-03-02 16:35:23
Tagged date : UTC 2009-03-02 20:47:14
Writing application : HandBrake 0.9.3 2008112300

Video
Format : AVC
Format/Info : Advanced Video Codec
Format profile : [email protected]
Format settings, CABAC : Yes
Format settings, ReFrames : 3 frames
Codec ID : avc1
Codec ID/Info : Advanced Video Coding
Duration : 1h 27mn
Bit rate mode : Variable
Bit rate : 940 Kbps
Nominal bit rate : 947 Kbps
Width : 720 pixels
Height : 552 pixels
Display aspect ratio : 1.855
Frame rate mode : Variable
Frame rate : 25.000 fps
Minimum frame rate : 12.500 fps
Maximum frame rate : 25.000 fps
Resolution : 24 bits
Colorimetry : 4:2:0
Scan type : Progressive
Bits/(Pixel*Frame) : 0.095
Stream size : 591 MiB (85%)
Writing library : x264 core 65

Encoded date : UTC 2009-03-02 16:35:23
Tagged date : UTC 2009-03-02 20:47:14

Audio
Format : AAC
Format/Info : Advanced Audio Codec
Format version : Version 4
Format profile : LC
Format settings, SBR : No
Codec ID : 40
Duration : 1h 27mn
Bit rate mode : Variable
Bit rate : 160 Kbps
Maximum bit rate : 217 Kbps
Channel(s) : 2 channels
Channel positions : L R
Sampling rate : 48.0 KHz
Resolution : 16 bits
Stream size : 100 MiB (14%)
Language : English
Encoded date : UTC 2009-03-02 16:35:23
Tagged date : UTC 2009-03-02 20:47:09

related torrents

Torrent name

health leech seeds Size
 


comments (0)

Main Menu