Comedy

The Distinguished Gentleman[1992]DivX[WS]DVDrip[Eng] Atlas47

  • Download 5x Faster
  • Download torrent
  • Direct Download
  • Rate this torrent +  |  -

Torrent info

Name:The Distinguished Gentleman[1992]DivX[WS]DVDrip[Eng] Atlas47

Total Size: 800.33 MB

Magnet: Magnet Link

Seeds: 0

Leechers: 0

Stream: Watch Online @ Movie4u

Last Updated: 2013-01-29 06:01:17 (Update Now)

Torrent added: 2009-08-31 20:17:08



VPN For Torrents

Torrent Files List


The Distinguished Gentleman.avi (Size: 800.33 MB) (Files: 3)

 The Distinguished Gentleman.avi

800.32 MB

 The Distinguished Gentleman.nfo

10.46 KB

 Torrent_downloaded_from_Demonoid.com.txt

0.05 KB
 

Announce URL:

Torrent description

????????????????????????????????????????????????????????????????????????????????
? ?
? INFO: ?
? ?
? General ?
? Complete name : The Distinguished Gentleman.avi ?
? Genre : Comedy ?
? Format : AVI ?
? Format/Info : Audio Video Interleave ?
? File size : 800 MiB ?
? Duration : 1h 47mn ?
? Overall bit rate : 1 038 Kbps ?
? Writing application : VirtualDubMod 1.5.4.1 (build 2178/release)?
? Writing library : VirtualDubMod build 2178/release ?
? ?
? Video ?
? Format : MPEG-4 Visual ?
? Format settings, BVOP : Yes ?
? Format settings, QPel : No ?
? Format settings, GMC : No warppoints ?
? Format settings, Matrix : Default ?
? Codec ID : DX50 ?
? Codec ID/Hint : DivX 5 ?
? Duration : 1h 47mn ?
? Bit rate : 919 Kbps ?
? Width : 608 pixels ?
? Height : 336 pixels ?
? Display aspect ratio : 16/9 ?
? Frame rate : 25.000 fps ?
? Resolution : 24 bits ?
? Colorimetry : 4:2:0 ?
? Scan type : Progressive ?
? Bits/(Pixel*Frame) : 0.180 ?
? Stream size : 708 MiB (89%) ?
? Writing library : DivX 2816 ?
? ?
? Audio ?
? Format : MPEG Audio ?
? Format version : Version 1 ?
? Format profile : Layer 3 ?
? Codec ID : 55 ?
? Codec ID/Hint : MP3 ?
? Duration : 1h 47mn ?
? Bit rate mode : Constant ?
? Bit rate : 112 Kbps ?
? Minimum bit rate : 112 Kbps ?
? Channel(s) : 2 channels ?
? Sampling rate : 44.1 KHz ?
? Resolution : 16 bits ?
? Stream size : 86.3 MiB (11%) ?
? Alignment : Split accross interleaves ?
? Interleave, duration : 80 ms (2.00 video frames) ?
? Interleave, preload duration : 500 ms ?
? Writing library : LAME3.98r ?
? Encoding settings : CBR ?
? Language : English ?
? Subtitle : None ?
? ?
? IMDb Rating : 5.6/10 ?
? IMDb URL : http://www.imdb.com/title/tt0104114/ ?
? ?
? ?
? ?
????????????????????????????????????????????????????????????????????????????????
? ?
? A small-time con man who becomes a big-time Politician! ?
? Thomas Jefferson Johnson, hustles his way to an elected seat in the U.S. ?
? Congress - but that's only the beginning. With the perks and power of his ?
? new position, Johnson cons for cash and doesn't have to break the law to ?
? bring in the big bucks! ?
? ?
????????????????????????????????????????????????????????????????????????????????
? ?
? CAST: ?
? ?
? Eddie Murphy.............Thomas Jefferson Johnson ?
? Lane Smith...............Dick Dodge ?
? Sheryl Lee Ralph.........Miss Loretta ?
? Joe Don Baker............Olaf Andersen ?
? Victoria Rowell..........Celia Kirby ?
? Charles S. Dutton........Elijah Hawkins ?
? ?
????????????????????????????????????????????????????????????????????????????????

related torrents

Torrent name

health leech seeds Size
 


comments (0)

Main Menu