Comedy

The Crocodile Hunter Collision Course (2002) DVDRip ENG

  • Download 5x Faster
  • Download torrent
  • Direct Download
  • Rate this torrent +  |  -
The Crocodile Hunter Collision Course (2002) DVDRip ENG

Free and Direct Download with Usenet.nl 300GB+ free


Torrent info

Name:The Crocodile Hunter Collision Course (2002) DVDRip ENG

Total Size: 589.98 MB

Magnet: Magnet Link

Seeds: 0

Leechers: 0

Stream: Watch Online @ Movie4u

Last Updated: 2012-02-26 04:07:11 (Update Now)

Torrent added: 2009-08-31 20:12:19





Torrent Files List


The Crocodile Hunter - Collision Course 2002 - DVDRip.avi (Size: 589.98 MB) (Files: 3)

 The Crocodile Hunter - Collision Course 2002 - DVDRip.avi

589.96 MB

 The crocodile hunter collision course.nfo

11.54 KB

 Torrent_downloaded_from_Demonoid.com.txt

0.05 KB
 

Announce URL:

Torrent description

http://uk.imdb.com/title/tt0305396/
User Rating: 5.3/10 (3,239 votes)
Release Date: 26 July 2002 (UK)
Genre: Action | Adventure | Comedy

Plot: The Crocodile Hunter (Steve Irwin) mistakes some CIA agents for poachers and sets out to stop them from capturing a wily croc which, unbeknown to him, has swallowed a tracking drone.



General
Complete name : The Crocodile Hunter - Collision Course 2002 - DVDRip.avi
Format : AVI
Format/Info : Audio Video Interleave
File size : 590 MiB
Duration : 1h 25mn
Overal bit rate : 964 Kbps
Writing application : VirtualDubMod 1.5.4.1 (build 2178/release)
Writing library : VirtualDubMod build 2178/release
IAS1 : English

Video
Format : MPEG-4 Visual
Format profile : Streaming [email protected]
Format settings, BVOP : Yes
Format settings, QPel : No
Format settings, GMC : No warppoints
Format settings, Matrix : Default
Muxing mode : Packet Bitstream
Codec ID : XVID
Codec ID/Hint : XviD
Duration : 1h 25mn
Bit rate : 765 Kbps
Width : 544 pixels
Height : 240 pixels
Display aspect ratio : 2.25
Frame rate : 25.000 fps
Resolution : 8 bits
Colorimetry : 4:2:0
Scan type : Progressive
Bits/(Pixel*Frame) : 0.234
Stream size : 468 MiB (79%)
Writing library : XviD 1.2.0.dev47 (UTC 2006-11-01)

Audio
Format : MPEG Audio
Format version : Version 1
Format profile : Layer 3
Codec ID : 55
Codec ID/Hint : MP3
Duration : 1h 25mn
Bit rate mode : Constant
Bit rate : 192 Kbps
Minimum bit rate : 192 Kbps
Channel(s) : 2 channels
Sampling rate : 48.0 KHz
Resolution : 16 bits
Stream size : 117 MiB (20%)
Writing library : LAME3.97
Encoding settings : CBR

Trackers:
http://www.torrent-downloads.to:5869/announce
http://open.tracker.thepiratebay.org:80/announce
http://tpb.tracker.thepiratebay.org:80/announce
http://vip.tracker.thepiratebay.org/announce


Info Hash: D625C9C02FE38C3246CCF5B471AB5EE3FA43E781

related torrents

Torrent name

health leech seeds Size
 

comments (0)

Main Menu