Comedy

The Burbs 1989 Tom Hanks Eng Optional MULTISUBS Kuth

  • Download 5x Faster
  • Download torrent
  • Direct Download
  • Rate this torrent +  |  -
The Burbs 1989 Tom Hanks Eng Optional MULTISUBS Kuth

Anonymous and Free Direct Download 300GB+


Torrent info

Name:The Burbs 1989 Tom Hanks Eng Optional MULTISUBS Kuth

Total Size: 700.50 MB

Magnet: Magnet Link

Seeds: 0

Leechers: 0

Stream: Watch Online @ Movie4u

Last Updated: 0000-00-00 00:00:00 (Update Now)

Torrent added: 2009-08-31 20:06:46



VPN For Torrents

Torrent Files List


The Burbs (1989) Tom Hanks (Optional MULTISUBS)_Kuth.avi (Size: 700.50 MB) (Files: 10)

 The Burbs (1989) Tom Hanks (Optional MULTISUBS)_Kuth.avi

693.97 MB

 ZZ-Optional multisubs

  Danish.rar

966.03 KB

  Dutch.rar

29.38 KB

  English for the hearing impaired.rar

1.23 MB

  Finnish.rar

844.92 KB

  Italian.rar

846.02 KB

  Norwegian.rar

833.11 KB

  Notes on subtitle files and burning of discs.txt

2.57 KB

  Spanish.rar

964.19 KB

  Swedish.rar

947.42 KB
 

Announce URL: http://mazysnuthouse.org/announce.php?passkey=595228a259f51afba51d43130fb4e030

Torrent description

The Burbs (1989) Tom Hanks (Optional MULTISUBS)



a.k.a.
The 'burbs (1989)
Nabokrigen (DK)
Piru naapurissa (FIN)
Nabohysteri (N)
En dj?vul till granne (S) En djavul till granne

Optional subtitles in separate idx/sub files: (Work in Windows Media Player etc.
- see enclosed Note): Danish, Dutch (srt format) English for the hearing
impaired, Finnish, Italian, Norwegian, Spanish, Swedish.

Classic crazy comedy with Tom Hanks and his eccentric neighbours.

Widescreen DVDrip XviD 2-pass 720x368, great stereo sound AC3.
Runs well in both my standalone DivX players.

MediaInfo analysis:
Format/Info : Audio Video Interleave
File size : 694 MiB
Duration : 1h 37mn
Overal bit rate : 998 Kbps

Video
Format : MPEG-4 Visual
Format profile : Streaming [email protected]
Format settings, BVOP : Yes
Format settings, QPel : No
Format settings, GMC : No warppoints
Format settings, Matrix : Default
Muxing mode : Packet Bitstream
Codec ID : XVID
Codec ID/Hint : XviD
Duration : 1h 37mn
Bit rate : 861 Kbps
Width : 720 pixels
Height : 368 pixels
Display aspect ratio : 1.957
Frame rate : 25.000 fps
Resolution : 8 bits
Colorimetry : 4:2:0
Scan type : Progressive
Bits/(Pixel*Frame) : 0.130
Stream size : 598 MiB
Writing library : XviD 1.2.0.dev47 (UTC 2006-11-01)

Audio
Format : MPEG Audio
Format version : Version 1
Format profile : Layer 3
Codec ID : 55
Codec ID/Hint : MP3
Duration : 1h 37mn
Bit rate mode : Constant
Bit rate : 128 Kbps
Minimum bit rate : 128 Kbps
Channel(s) : 2 channels
Sampling rate : 48.0 KHz
Resolution : 16 bits
Stream size : 89.0 MiB
Writing library : LAME3.97
Encoding settings : CBR

related torrents

Torrent name

health leech seeds Size
 


comments (0)

Main Menu