Comedy

The Bucket List(2007) DVDRip XviD ~ Smeet

  • Download 5x Faster
  • Download torrent
  • Direct Download
  • Rate this torrent +  |  -
The Bucket List(2007) DVDRip XviD ~ Smeet

Free and Direct Download with Usenet.nl 300GB+ free


Torrent info

Name:The Bucket List(2007) DVDRip XviD ~ Smeet

Total Size: 698.28 MB

Magnet: Magnet Link

Seeds: 0

Leechers: 0

Stream: Watch Online @ Movie4u

Last Updated: 2011-01-22 08:55:29 (Update Now)

Torrent added: 2009-08-31 20:06:24





Torrent Files List


smeet.nfo (Size: 698.28 MB) (Files: 3)

 smeet.nfo

6.90 KB

 The Bucket List(2007)-DVDRip-XviD ~ Smeet.avi

698.18 MB

 The Bucket List(2007)-DVDRip-XviD ~ Smeet.srt

93.32 KB
 

Announce URL: http://ictorrent.com:2710/announce

Torrent description


################## TM
##^^^^^^^^^^^^^^^^####
############## #^^^^^^^^^^^^^^^^^^^##
###### #### #########^^^^^# #^^^^^#########^^^^^#
###### ####### ###########^^^# #^^^^^^^^^^^^^#^^^^^#
####### ####### ############^^## #^^^^^^^^^^^^^#^^^^^#
################################# ############^^^###^^^^^^^^^^^^^#^^^^^#
############################################^#^^#^^^^^^^^^^^^^^^^#^^^^^#
#####################################^^^^^^^^#^^#########^^^#######^^^^#####
####################################^^^^^^^^^##^^^^^^^^^##^^#^^^^^^^^^^^^^^##
####################################^^^^^^^^^^###^^^^^^^^#^^#^^^^^^^^^^^^^^^##
######################### ##########^^^^^####^^##^^^^^^^^#^^#^^^^^^^^^^^^^^^##
####################################^########^^#^#########^^######^^^^^######
#############################################^^#^#^^^^^^^^^^^^^^^#^^^^^#
##############################################^#^#^^^^^^^^^^^^^^^#^^^^^#
##############################################^#^#^^^^^^^^^^^^^^^#^^^^^#
##################################^^^^^^^^^^#^#^^^^^^^^^^^^^^^#^^^^^#
############################################^^^#^##^^^^^^^^^^^^^^#^^^^^#
##############################################^#^^^###^^^^^^^^^^^#^^^^^#
#################################################^^^^#^^^^^^^^^^^#^^^^^#
###############################################^######^^^^^^^^^^^#^^^^^#
###################### ###### ##############^^^^^^^^^^^########^^^^^#
###################### ###### ##############^^##^^^^^^^# #^^^^^^#
###################### ###### ##################^^^^^^^# #^^^^^^#
############## ############### ######^^# ########
############## ############### ###
#############
MEANS QUALITY

=======================================================
= The Bucket List (2007) =
=======================================================

|##############################################################################|
| |
|GENERAL INFORMATION |
|=================== |
|Format : AVI |
|Format/Info : Audio Video Interleave |
|Format profile : OpenDML |
|File size : 698 MiB |
|Duration : 1h 33mn |
|Overall bit rate : 1 047 Kbps |
|Language : English |
|SUBTITLE : English |
|GENRE : Drama|Comedy |
|IMDB LINK : http://www.imdb.com/title/tt0825232/ |
|IMDB RATING : 7.5/10 |
|RIPPER : SMEET |
|##############################################################################|

|##############################################################################|
| |
|Video |
|Format : MPEG-4 Visual |
|Format settings, Matrix : Default (H.263) |
|Codec ID : XVID |
|Codec ID/Hint : XviD |
|Duration : 1h 33mn |
|Width : 688 pixels |
|Height : 384 pixels |
|Display aspect ratio : 16/9 |
|Frame rate : 25.000 fps |
|Resolution : 24 bits |
|Colorimetry : 4:2:0 |
|Scan type : Progressive |
|Bits/(Pixel*Frame) : 0.139 |
|Stream size : 610 MiB (87%) |
|Writing library : XviD 1.2.1 (UTC 2008-12-04) rter. |
|##############################################################################|
|Audio |
|Format : MPEG Audio |
|Format version : Version 1 |
|Format profile : Layer 3 |
|Codec ID : 55 |
|Codec ID/Hint : MP3 |
|Duration : 1h 33mn |
|Bit rate mode : Constant |
|Bit rate : 128 Kbps |
|Channel(s) : 2 channels |
|Sampling rate : 48.0 KHz |
|Resolution : 16 bits |
|Stream size : 85.4 MiB (12%) |
|Alignment : Aligned on interleaves |
|Interleave, duration : 781 ms (19.53 video frames) |
|Interleave, preload duration : 216 ms |
|Title : bucket~smeet T80 3_2ch 384Kbps DELAY 0ms |
|Writing library : LAME3.98r |
|Encoding settings : -m j -V 4 -q 2 -lowpass 17 -b 128 |
|##############################################################################|



related torrents

Torrent name

health leech seeds Size
 

comments (0)

Main Menu