Romance

MastiTorrents comBachna Ae Haseeno (2008) ~ 2 CD Pre~DVDRip ~ AC3 ~ E Sub

  • Download 5x Faster
  • Download torrent
  • Direct Download
  • Rate this torrent +  |  -

Torrent info

Name:MastiTorrents comBachna Ae Haseeno (2008) ~ 2 CD Pre~DVDRip ~ AC3 ~ E Sub

Total Size: 1.35 GB

Magnet: Magnet Link

Seeds: 1

Leechers: 9

Stream: Watch Online @ Movie4u

Last Updated: 2011-01-07 18:06:41 (Update Now)

Torrent added: 2008-08-18 15:43:56



VPN For Torrents

Torrent Files List


Bachna Ae Haseeno (2008) ~ 2 CD Pre~DVDRip ~ AC3 ~ E Sub [Team Dus].avi (Size: 1.35 GB) (Files: 2)

 Bachna Ae Haseeno (2008) ~ 2 CD Pre~DVDRip ~ AC3 ~ E Sub [Team Dus].avi

1.34 GB

 Bachna Ae Haseeno (2008) ~ 2 CD Pre~DVDRip ~ AC3 ~ E Sub [Team Dus].srt

73.19 KB
 

Announce URL: http://mastitorrents.com:2710/000000024738027e72c3a2a54a793922/announce

Torrent description

For More Information Please Visit Us At
http://www.mastitorrents.com


Complete name : D:\Bachna Ae Haseeno (2008) ~ 2 CD Pre~DVDRip ~ AC3 ~ E Sub [Team Dus]\Bachna Ae Haseeno (2008) ~ 2 CD Pre~DVDRip ~ AC3 ~ E Sub [Team Dus].avi
Format : AVI
Format/Info : Audio Video Interleave
File size : 1.34 GiB
Duration : 2h 1mn
Overall bit rate : 1579 Kbps
Subtitles - English
Ripper - Deepatel [Team DUS]
Movie language - Hindi
Source - Pre DVD-R @ Pascal

Video
Format : MPEG-4 Visual
Format profile : Streaming [email protected]
Format settings, BVOP : Yes
Format settings, QPel : No
Format settings, GMC : No warppoints
Format settings, Matrix : Default
Codec ID : XVID
Codec ID/Hint : XviD
Duration : 2h 1mn
Bit rate : 1184 Kbps
Width : 640 pixels
Height : 288 pixels
Display aspect ratio : 2.222
Frame rate : 29.970 fps
Resolution : 8 bits
Colorimetry : 4:2:0
Scan type : Progressive
Bits/(Pixel*Frame) : 0.214
Stream size : 1.01 GiB (75%)
Writing library : XviD 1.2.0.dev47 (UTC 2006-11-01)

Audio
Format : AC-3
Format/Info : Audio Coding 3
Codec ID : 2000
Duration : 2h 1mn
Bit rate mode : Constant
Bit rate : 384 Kbps
Channel(s) : 6 channels
Channel positions : Front: L C R, Rear: L R, LFE
Sampling rate : 48.0 KHz
Stream size : 335 MiB (24%)
Alignment : Split accross interleaves
Interleave, duration : 33 ms (1.00 video frame)
Interleave, preload duration : 500 ms

related torrents

Torrent name

health leech seeds Size
 


comments (0)

Main Menu