Comedy

Slam Dunk Ernest 1995 DvdRip Xvid [

  • Download 5x Faster
  • Download torrent
  • Direct Download
  • Rate this torrent +  |  -
Slam Dunk Ernest 1995 DvdRip Xvid [

Download FREE And Anonymously


Torrent info

Name:Slam Dunk Ernest 1995 DvdRip Xvid [

Total Size: 702.66 MB

Magnet: Magnet Link

Seeds: 0

Leechers: 0

Stream: Watch Full Movie @ Movie4u

Last Updated: 2011-08-03 10:35:57 (Update Now)

Torrent added: 2009-08-31 18:39:46



VPN For Torrents

Torrent Files List


Slam Dunk Ernest.part01.rar (Size: 702.66 MB) (Files: 52)

 Slam Dunk Ernest.part01.rar

14.31 MB

 Slam Dunk Ernest.part01.sfv

5.20 KB

 Slam Dunk Ernest.part02.rar

14.31 MB

 Slam Dunk Ernest.part03.rar

14.31 MB

 Slam Dunk Ernest.part04.rar

14.31 MB

 Slam Dunk Ernest.part05.rar

14.31 MB

 Slam Dunk Ernest.part06.rar

14.31 MB

 Slam Dunk Ernest.part07.rar

14.31 MB

 Slam Dunk Ernest.part08.rar

14.31 MB

 Slam Dunk Ernest.part09.rar

14.31 MB

 Slam Dunk Ernest.part10.rar

14.31 MB

 Slam Dunk Ernest.part11.rar

14.31 MB

 Slam Dunk Ernest.part12.rar

14.31 MB

 Slam Dunk Ernest.part13.rar

14.31 MB

 Slam Dunk Ernest.part14.rar

14.31 MB

 Slam Dunk Ernest.part15.rar

14.31 MB

 Slam Dunk Ernest.part16.rar

14.31 MB

 Slam Dunk Ernest.part17.rar

14.31 MB

 Slam Dunk Ernest.part18.rar

14.31 MB

 Slam Dunk Ernest.part19.rar

14.31 MB

 Slam Dunk Ernest.part20.rar

14.31 MB

 Slam Dunk Ernest.part21.rar

14.31 MB

 Slam Dunk Ernest.part22.rar

14.31 MB

 Slam Dunk Ernest.part23.rar

14.31 MB

 Slam Dunk Ernest.part24.rar

14.31 MB

 Slam Dunk Ernest.part25.rar

14.31 MB

 Slam Dunk Ernest.part26.rar

14.31 MB

 Slam Dunk Ernest.part27.rar

14.31 MB

 Slam Dunk Ernest.part28.rar

14.31 MB

 Slam Dunk Ernest.part29.rar

14.31 MB

 Slam Dunk Ernest.part30.rar

14.31 MB

 Slam Dunk Ernest.part31.rar

14.31 MB

 Slam Dunk Ernest.part32.rar

14.31 MB

 Slam Dunk Ernest.part33.rar

14.31 MB

 Slam Dunk Ernest.part34.rar

14.31 MB

 Slam Dunk Ernest.part35.rar

14.31 MB

 Slam Dunk Ernest.part36.rar

14.31 MB

 Slam Dunk Ernest.part37.rar

14.31 MB

 Slam Dunk Ernest.part38.rar

14.31 MB

 Slam Dunk Ernest.part39.rar

14.31 MB

 Slam Dunk Ernest.part40.rar

14.31 MB

 Slam Dunk Ernest.part41.rar

14.31 MB

 Slam Dunk Ernest.part42.rar

14.31 MB

 Slam Dunk Ernest.part43.rar

14.31 MB

 Slam Dunk Ernest.part44.rar

14.31 MB

 Slam Dunk Ernest.part45.rar

14.31 MB

 Slam Dunk Ernest.part46.rar

14.31 MB

 Slam Dunk Ernest.part47.rar

14.31 MB

 Slam Dunk Ernest.part48.rar

14.31 MB

 Slam Dunk Ernest.part49.rar

14.31 MB

 Slam Dunk Ernest.part50.rar

1.70 MB

 Slamdunk Ernest.nfo

2.07 KB
 

Announce URL: http://tracker.ilovetorrents.com/announce.php

Torrent description

General
Complete name : C:\Torrent Creation\Slam Dunk Ernest\Slam Dunk Ernest.avi
Format : AVI
Format/Info : Audio Video Interleave
File size : 703 MiB
Duration : 1h 32mn
Overal bit rate : 1059 Kbps
Writing application : VirtualDubMod 1.5.4.1 (build 2178/release)
Writing library : VirtualDubMod build 2178/release
IAS1 : English

Video
Format : MPEG-4 Visual
Format profile : Streaming [email protected]
Format settings, BVOP : Yes
Format settings, QPel : No
Format settings, GMC : No warppoints
Format settings, Matrix : Custom
Codec ID : XVID
Codec ID/Hint : XviD
Duration : 1h 32mn
Bit rate : 937 Kbps
Width : 512 pixels
Height : 384 pixels
Display aspect ratio : 4/3
Frame rate : 23.976 fps
Resolution : 8 bits
Colorimetry : 4:2:0
Scan type : Progressive
Bits/(Pixel*Frame) : 0.199
Stream size : 622 MiB
Writing library : XviD 1.1.0 (UTC 2005-11-22)

Audio
Format : MPEG Audio
Format version : Version 1
Format profile : Layer 3
Codec ID : 55
Codec ID/Hint : MP3
Duration : 1h 32mn
Bit rate mode : Variable
Bit rate : 109 Kbps
Minimum bit rate : 128 Kbps
Channel(s) : 2 channels
Sampling rate : 48.0 KHz
Resolution : 16 bits
Stream size : 72.6 MiB
Writing library : LAME3.97b
Encoding settings : ABR

Link: http://www.imdb.com/title/tt0114469/

related torrents

Torrent name

health leech seeds Size

Slam Dunk Ernest XviD [

0 0 699.80 MB 0

Slam Dunk Ernest [1995]

0 1 700.00 MB 0
 


comments (0)

Main Menu

 

script data-cfasync="false" src="//d2ghscazvn398x.cloudfront.net/?cshgd=690275">