Drama

Angels & Demons Extended Cut [2009] DVDRip N!CK

  • Download 5x Faster
  • Download torrent
  • Direct Download
  • Rate this torrent +  |  -
Angels & Demons Extended Cut [2009] DVDRip N!CK

Free and Direct Download with Usenet.nl 300GB+ free


Torrent info

Name:Angels & Demons Extended Cut [2009] DVDRip N!CK

Total Size: 701.60 MB

Magnet: Magnet Link

Seeds: 2

Leechers: 1

Stream: Watch Online @ Movie4u

Last Updated: 2010-07-24 20:10:06 (Update Now)

Torrent added: 2009-08-31 18:33:26





Torrent Files List


Subtitles (Size: 701.60 MB) (Files: 5)

 Subtitles

  Angels & Demons Extended Cut [2009] DVDRip [ENG].srt

108.85 KB

  Angels & Demons Extended Cut [2009] DVDRip [ROM].srt

105.34 KB

 Angels & Demons Extended Cut [2009] DVDRip - N!CK.avi

696.83 MB

 Sample.avi

4.56 MB

 Release Info.txt

1.01 KB
 

Announce URL: http://tracker.publicbt.com:80/announce

Torrent description

General
Complete name : C:\Angels & Demons Extended Cut [2009] DVDRip - N!CK\Angels & Demons Extended Cut [2009] DVDRip - N!CK.avi
Format : AVI
Format/Info : Audio Video Interleave
File size : 697 MiB
Duration : 2h 26mn
Overal bit rate : 666 Kbps

Video
Format : MPEG-4 Visual
Format profile : Streaming [email protected]
Format settings, BVOP : Yes
Format settings, QPel : No
Format settings, GMC : No warppoints
Format settings, Matrix : Default
Codec ID : XVID
Codec ID/Hint : XviD
Duration : 2h 26mn
Bit rate : 557 Kbps
Width : 672 pixels
Height : 304 pixels
Display aspect ratio : 2.2
Frame rate : 23.976 fps
Resolution : 8 bits
Colorimetry : 4:2:0
Scan type : Progressive
Bits/(Pixel*Frame) : 0.114
Stream size : 583 MiB
Writing library : XviD 50

Audio
Format : MPEG Audio
Format version : Version 1
Format profile : Layer 3
Codec ID : 55
Codec ID/Hint : MP3
Bit rate mode : Constant
Bit rate : 96.0 Kbps
Channel(s) : 2 channels
Sampling rate : 48.0 KHz
Resolution : 16 bits
Stream size : 100 MiB

related torrents

Torrent name

health leech seeds Size
 

comments (0)

Main Menu