Comedy

Sherlock Bones[DVDRip][ENG]

  • Download 5x Faster
  • Download torrent
  • Direct Download
  • Rate this torrent +  |  -
Sherlock Bones[DVDRip][ENG]

Anonymous and Direct Download 300GB+ free


Torrent info

Name:Sherlock Bones[DVDRip][ENG]

Total Size: 719.72 MB

Magnet: Magnet Link

Seeds: 0

Leechers: 0

Stream: Watch Online @ Movie4u

Last Updated: 2010-01-23 08:29:53 (Update Now)

Torrent added: 2009-08-31 18:24:13




Torrent Files List


Sherlock_Bones[DVDRip][ENG].avi (Size: 719.72 MB) (Files: 3)

 Sherlock_Bones[DVDRip][ENG].avi

719.63 MB

 Sherlock_Bones[DVDRip][ENG].srt

93.74 KB

 www.acb-team.eu.tc.rtf

2.53 KB
 

Announce URL: http://tracker.thepiratebay.org/announce

Torrent description

Sherlock_Bones[DVDRip][ENG]

****************************************************************************************
ACB-Team.eu = http://www.acb-team.eu.tc/

****************************************************************************************
Verenigde Staten
Komedie / Familie
78 minuten

geregisseerd door Richard Harding Gardner
met Cooper Cameron, Benjamin Eroen en Anthony Simmons

Sherlock Bones is een superslimme speurhond. Wanneer zijn baasje op het eiland Catalina wordt ontvoerd door een boevenbende, roept Sherlock de hulp in van de tienjarige Billy, die op vakantie is bij zijn vader, een verstrooide professor. Samen met Sherlock moet Billy de ontvoerde politieman zien te redden uit de klauwen van de boeven, maar dat gaat niet zo gemakkelijk...

****************************************************************************************
General
Complete name : Sherlock_Bones[DVDRip][ENG].avi
Format : AVI
Format/Info : Audio Video Interleave
File size : 720 MiB
Duration : 1h 15mn
Overall bit rate : 1 340 Kbps

Video
Format : MPEG-4 Visual
Format profile : [email protected]
Format settings, BVOP : No
Format settings, QPel : No
Format settings, GMC : No warppoints
Format settings, Matrix : Default (H.263)
Codec ID : XVID
Codec ID/Hint : XviD
Duration : 1h 15mn
Bit rate : 1 199 Kbps
Width : 640 pixels
Height : 480 pixels
Display aspect ratio : 4/3
Frame rate : 25.000 fps
Resolution : 24 bits
Colorimetry : 4:2:0
Scan type : Progressive
Bits/(Pixel*Frame) : 0.156
Stream size : 644 MiB (90%)
Writing library : Magic0432

Audio
Format : MPEG Audio
Format version : Version 1
Format profile : Layer 3
Codec ID : 55
Codec ID/Hint : MP3
Duration : 1h 15mn
Bit rate mode : Constant
Bit rate : 128 Kbps
Channel(s) : 2 channels
Sampling rate : 44.1 KHz
Resolution : 16 bits
Stream size : 68.8 MiB (10%)
Alignment : Aligned on interleaves
Interleave, duration : 26 ms (0.65 video frame)

****************************************************************************************

related torrents

Torrent name

health leech seeds Size
 


comments (0)

Main Menu