Comedy

Scenes From A Mall (1991)[Naughty Knights] [H33T]Woody Allen Bette Midler{Fixed}

  • Download 5x Faster
  • Download torrent
  • Direct Download
  • Rate this torrent +  |  -

Torrent info

Name:Scenes From A Mall (1991)[Naughty Knights] [H33T]Woody Allen Bette Midler{Fixed}

Total Size: 750.76 MB

Magnet: Magnet Link

Seeds: 0

Leechers: 1

Stream: Watch Online @ Movie4u

Last Updated: 2016-10-19 07:43:40 (Update Now)

Torrent added: 2009-08-31 17:56:05




Torrent Files List


Scenes Description.txt (Size: 750.76 MB) (Files: 8)

 Scenes Description.txt

0.75 KB

 Scenes From A Mall.avi

750.67 MB

 scenes Mediainfo.txt

2.58 KB

 scenes1.jpg

23.00 KB

 scenes2.jpg

27.48 KB

 scenes3.jpg

36.97 KB

 Torrent_downloaded_from_Demonoid.com.txt

0.05 KB

 tracked_by_h33t_com.txt

0.02 KB
 

tracker

leech seeds
 

Torrent description

*************************************
* IF.YOU.ENJOYED.THANK.ME.BY.SEEDING

* I.DO.NOT.ALWAYS.READ.COMMENTS

* REQUEST RESEED AT:

* www.h33tfr33sp33k.h33t.com/

*************************************
* Scenes From a Mall(1991)[Naughty Knights]Woody Allen Bette Midler

* Genre..........: Comedy

* Source ........: DVDrip

* Language ......: English

* Quality........: Good

* Hash ..........: A3ECD26D407A8F77434A49C153825D8CC71D3C69

* Tracker 1......: http://www.h33t.com:3310/announce

* Tracker 2 .....: http://inferno.demonoid.com:3409/announce

* For file details see below:
-----------------
IMDB: http://www.imdb.com/title/tt0102849/
----------------
Description:
Comedy about a bickering married couple that work out all their marital problems during a trip to the mall.
--------------------------------------
Details: Mediainfo log:

Complete name: C:\Users\Scenes From A Mall(1991)[Naughty Knights] Woody Allen Bette Midler\Scenes From A Mall.avi

Format : AVI
Format/Info : Audio Video Interleave
File size : 751 MiB
Duration : 1h 23mn
Overall bit rate : 1 256 Kbps

Video
Format : AVC
Format/Info : Advanced Video Codec
Format profile : [email protected]
Format settings, CABAC : Yes
Format settings, ReFrames : 2 frames
Codec ID : H264
Duration : 1h 23mn
Bit rate : 1 118 Kbps
Width : 656 pixels
Height : 368 pixels
Display aspect ratio : 16/9
Frame rate : 25.000 fps
Resolution : 24 bits
Colorimetry : 4:2:0
Scan type : Progressive
Bits/(Pixel*Frame) : 0.185
Stream size : 668 MiB (89%)
Writing library : x264 core 58 svn-736bm

Audio
Format : MPEG Audio
Format version : Version 1
Format profile : Layer 3
Codec ID : 55
Codec ID/Hint : MP3
Duration : 1h 23mn
Bit rate mode : Constant
Bit rate : 128 Kbps
Minimum bit rate : 128 Kbps
Channel(s) : 2 channels
Sampling rate : 48.0 KHz
Resolution : 16 bits
Stream size : 76.5 MiB (10%)
Alignment : Aligned on interleaves
Interleave, duration : 40 ms (1.00 video frame)
Interleave, preload duration : 504 ms
Writing library : LAME3.97
Encoding settings : CBR




related torrents

Torrent name

health leech seeds Size
 

comments (0)

Main Menu