Comedy

Runaway Bride (1999) Julia Roberts (QualityDVDrip Multisubs)

  • Download 5x Faster
  • Download torrent
  • Direct Download
  • Rate this torrent +  |  -
Runaway Bride (1999) Julia Roberts (QualityDVDrip Multisubs)

Anonymous and Direct Download 300GB+ free


Torrent info

Name:Runaway Bride (1999) Julia Roberts (QualityDVDrip Multisubs)

Total Size: 699.63 MB

Magnet: Magnet Link

Seeds: 22

Leechers: 5

Stream: Watch Online @ Movie4u

Last Updated: 2016-02-04 19:03:05 (Update Now)

Torrent added: 2009-08-31 17:33:44




Torrent Files List


Info about this release.txt (Size: 699.63 MB) (Files: 3)

 Info about this release.txt

4.21 KB

 Runaway Bride (1999) Julia Roberts (QualityRip+Multisubs)_Kuth.avi

699.30 MB

 Subtitles

  RunawayBride-9 subtitle files.rar

334.13 KB
 

tracker

leech seeds
 

Torrent description



Optional subtitles (srt format) in
Danish, Dutch, English, Finnish, French, German, Norwegian, Spanish, Swedish.

A reporter (Richard Gere) is assigned to write a story about a woman who has left a string of fiances at the altar.

DVDrip, XviD 2-pass Widescreen 704x288, good stereo AC3.

Burn tested, runs well in both my DivX players.

Format/Info : Audio Video Interleave
File size : 699 MiB
Duration : 1h 51mn
Overal bit rate : 876 Kbps

Video
Format : MPEG-4 Visual
Format profile : Streaming [email protected]
Format settings, BVOP : Yes
Format settings, QPel : No
Format settings, GMC : No warppoints
Format settings, Matrix : Default
Muxing mode : Packet Bitstream
Codec ID : XVID
Codec ID/Hint : XviD
Duration : 1h 51mn
Bit rate : 738 Kbps
Width : 704 pixels
Height : 288 pixels
Display aspect ratio : 2.444
Frame rate : 25.000 fps
Resolution : 8 bits
Colorimetry : 4:2:0
Scan type : Progressive
Bits/(Pixel*Frame) : 0.146
Stream size : 589 MiB
Writing library : XviD 1.2.0.dev47 (UTC 2006-11-01)

Audio
Format : MPEG Audio
Format version : Version 1
Format profile : Layer 3
Codec ID : 55
Codec ID/Hint : MP3
Duration : 1h 51mn
Bit rate mode : Constant
Bit rate : 128 Kbps
Minimum bit rate : 128 Kbps
Channel(s) : 2 channels
Sampling rate : 48.0 KHz
Resolution : 16 bits
Stream size : 102 MiB
Writing library : LAME3.97
Encoding settings : CBR

related torrents

Torrent name

health leech seeds Size
 


comments (0)

Main Menu