Action

Resident Evil Extinction[2009]DvDrip LW [Bit Byte]

  • Download 5x Faster
  • Download torrent
  • Direct Download
  • Rate this torrent +  |  -
Resident Evil Extinction[2009]DvDrip LW [Bit Byte]

Free and Direct Download with Usenet.nl 300GB+ free


Torrent info

Name:Resident Evil Extinction[2009]DvDrip LW [Bit Byte]

Total Size: 820.29 MB

Magnet: Magnet Link

Seeds: 1

Leechers: 0

Stream: Watch Online @ Movie4u

Last Updated: 2012-03-18 15:12:40 (Update Now)

Torrent added: 2009-08-31 17:33:26





Torrent Files List


Cover (Size: 820.29 MB) (Files: 6)

 Cover

  Cover.jpg

200.88 KB

 Info

  Movie Info.nfo

4.25 KB

  Movie Info.txt

3.07 KB

 Movie

  Resident Evil Extinction[2009]DvDrip-LW.avi

820.09 MB

 Trackers

  Torrent_downloaded_from_Demonoid.com.txt

0.05 KB

  tracked_by_h33t_com.txt

0.02 KB
 

Announce URL: http://www.h33t.com:3310/announce

Torrent description

ßßßßßßßßßßßßßßßßßßßßßßßßßßßßßßßßßßßßßßßßßßßßßßßßßßßßßßßßßßßßßßßßßßßßßß

Û°°°°°°°°°°°°°°°°°°°°°°°°°°°°°°°°°°°°°°°°°Û
ÛÛ Resident Evil Extinction[2009]DvDrip-LW ÛÛ
Û°°°°°°°°°°°°°°°°°°°°°°°°°°°°°°°°°°°°°°°°°Û

File Name : Resident Evil Extinction[2009]DvDrip-LW
Type : Movie
Format : AVI
File Size : 820 MB
Duration : 01:34:05
Language : English
Source : DvD
Subtitles : None
Genre : Action | Horror | Sci-Fi | Thriller
IMDB Link : http://www.imdb.com/title/tt0432021/
IMDB Rating : 6.2/10
IMDB Votes : 41,241 Votes
ÜÜÜÜÜÜÜÜÜÜÜÜÜÜÜÜÜÜÜÜÜÜÜÜÜÜÜÜÜÜÜÜÜÜÜÜÜÜÜÜÜÜÜÜÜÜÜÜÜÜÜÜÜÜÜÜÜÜÜÜÜÜÜÜÜÜÜÜÜÜ

Û°°°°°°°°°°°°°°°°°°°°°°°°Û
ÛÛ Video Info ÛÛ
Û°°°°°°°°°°°°°°°°°°°°°°°°Û

Format : MPEG-4 Visual
Format profile : Streaming [email protected]
Format settings, BVOP : Yes
Format settings, QPel : No
Format settings, GMC : No warppoints
Format settings, Matrix : Custom
Codec ID : XVID
Codec ID/Hint : XviD
Duration : 1h 34mn
Bit rate : 1 099 Kbps
Width : 672 pixels
Height : 288 pixels
Display aspect ratio : 2.35
Frame rate : 23.976 fps
Resolution : 24 bits
Colorimetry : 4:2:0
Scan type : Progressive
Bits/(Pixel*Frame) : 0.237
Stream size : 740 MiB (90%)
Writing library : XviD 1.2.1
ÜÜÜÜÜÜÜÜÜÜÜÜÜÜÜÜÜÜÜÜÜÜÜÜÜÜÜÜÜÜÜÜÜÜÜÜÜÜÜÜÜÜÜÜÜÜÜÜÜÜÜÜÜÜÜÜÜÜÜÜÜÜÜÜÜÜÜÜÜÜ

Û°°°°°°°°°°°°°°°°°°°°°°°°Û
ÛÛ Sound Info ÛÛ
Û°°°°°°°°°°°°°°°°°°°°°°°°Û

Format : MPEG Audio
Format version : Version 1
Format profile : Layer 3
Codec ID : 55
Codec ID/Hint : MP3
Duration : 1h 34mn
Bit rate mode : Constant
Bit rate : 112 Kbps
Minimum bit rate : 112 Kbps
Channel(s) : 2 channels
Sampling rate : 44.1 KHz
Resolution : 16 bits
Stream size : 75.4 MiB (9%)
Alignment : Split accross interleaves
Interleave, duration : 83 ms (2.00 video frames)
Interleave, preload duration : 500 ms
Writing library : LAME3.98r
Encoding settings : CBR
ÜÜÜÜÜÜÜÜÜÜÜÜÜÜÜÜÜÜÜÜÜÜÜÜÜÜÜÜÜÜÜÜÜÜÜÜÜÜÜÜÜÜÜÜÜÜÜÜÜÜÜÜÜÜÜÜÜÜÜÜÜÜÜÜÜÜÜÜÜÜ

Û°°°°°°°°°°°°°°°°°°°°°°°°Û
ÛÛ Plot ÛÛ
Û°°°°°°°°°°°°°°°°°°°°°°°°Û

In the final installment of the Resident Evil series,
Milla Jovovich returns as zombie-killing soldier
Alice, who's left to roam the ruins of Las Vegas
with a small band of survivors when a string of viral
outbreaks nearly wipes out humankind. Alice has
always been obsessed with bringing down the Umbrella
Corp. but now must battle the undead -- and her
extinction. Oded Fehr, Mike Epps, Ali Larter and
rhythm-and-blues singer Ashanti also star.

Starring: Milla Jovovich, Oded Fehr

Director: Russell Mulcahy
ÜÜÜÜÜÜÜÜÜÜÜÜÜÜÜÜÜÜÜÜÜÜÜÜÜÜÜÜÜÜÜÜÜÜÜÜÜÜÜÜÜÜÜÜÜÜÜÜÜÜÜÜÜÜÜÜÜÜÜÜÜÜÜÜÜÜÜÜÜÜ

related torrents

Torrent name

health leech seeds Size
 

comments (0)

Main Menu