The Undefeated 1969 dvdrip xvid eng mp3

  • Download 5x Faster
  • Download torrent
  • Direct Download
  • Rate this torrent +  |  -
The Undefeated 1969 dvdrip xvid eng mp3

Free and Direct Download with Usenet.nl 300GB+ free

Torrent info

Name:The Undefeated 1969 dvdrip xvid eng mp3

Total Size: 1.35 GB

Magnet: Magnet Link

Seeds: 0

Leechers: 1

Stream: Watch Online @ Movie4u

Last Updated: 2012-06-02 20:34:59 (Update Now)

Torrent added: 2008-08-18 06:34:39

Torrent Files List

1969.The.Undefeated.dvdrip.xvid.eng.mp3.avi (Size: 1.35 GB) (Files: 5)


1.35 GB


18.74 KB


3.32 KB

 Torrent downloaded from Demonoid.com.txt

0.05 KB


0.08 KB

Announce URL: http://inferno.demonoid.com:3393/announce

Torrent description

The Undefeated [1969]

NOTE: This is my own dvdrip of the film...not the vhs rip that is making the rounds.

IMDb Number: tt0065150
IMDb Link: http://www.imdb.com/title/tt0065150/

IMDb Synopsis

After the Civil War, ex-Union Colonel John Henry Thomas and ex-Confederate Colonel James Langdon are leading two disparate groups of people through strife-torn Mexico. John Henry and company are bringing horses to the unpopular Mexican government for $35 a head while Langdon is leading a contingent of displaced southerners, who are looking for a new life in Mexico after losing their property to carpetbaggers. The two men are eventually forced to mend their differences in order to fight off both bandits and revolutionaries, as they try to lead their friends and kin to safety.


John Wayne ... Col. John Henry Thomas
Rock Hudson ... Col. James Langdon
Antonio Aguilar ... Juarista Gen. Rojas (as Tony Aguilar)
Roman Gabriel ... Blue Boy (John Henry's Cherokee Indian adopted son)
Marian McCargo ... Ann Langdon
Lee Meriwether ... Margaret Langdon
Merlin Olsen ... Cpl. Little George, CSA
Melissa Newman ... Charlotte Langdon
Bruce Cabot ... Sgt. Jeff Newby CSA
Jan-Michael Vincent... Lt. Bubba Wilkes CSA (as Michael Vincent)
Ben Johnson ... Short Grub
Edward Faulkner ... Capt. Anderson, CSA (Col. Langdon's aide)
Harry Carey Jr. ... Soloman Webster (Thomas rider)
Paul Fix ... Gen. Joe Masters
Royal Dano ... Maj. Sanders, CSA (one-armed major)

Tech Stuff

Ripped with Magic DVD Ripper
Burn Tested: NO

Format : AVI
Format/Info : Audio Video Interleave
File size : 1.35 GiB
Duration : 1h 58mn
Overal bit rate : 1628 Kbps

Format : MPEG-4 Visual
Format profile : [email protected]
Format settings, BVOP : No
Format settings, QPel : No
Format settings, GMC : 0 warppoint
Format settings, Matrix : Default
Codec ID : XVID
Codec ID/Hint : XviD
Duration : 1h 58mn
Bit rate : 1487 Kbps
Width : 640 pixels
Height : 360 pixels
Display aspect ratio : 16/9
Frame rate : 29.970 fps
Original frame rate : 29.969 fps
Resolution : 8 bits
Colorimetry : 4:2:0
Scan type : Progressive
Bits/(Pixel*Frame) : 0.215
Stream size : 1.23 GiB
Writing library : Magic0432

Format : MPEG Audio
Format version : Version 1 / Layer 3
Codec ID : 55
Codec ID/Hint : MP3
Duration : 1h 58mn
Bit rate mode : CBR
Bit rate : 128 Kbps
Channel(s) : 2 channels
Sampling rate : 44.1 KHz
Resolution : 16 bits
Stream size : 108 MiB
Writing library : LAME3.97

related torrents

Torrent name

health leech seeds Size

comments (0)

Main Menu