Trance / House / Dance

VA Hard Dance Mania Vol 13 Mixed By Pulsedriver 2CD 2008 EGM

  • Download 5x Faster
  • Download torrent
  • Direct Download
  • Rate this torrent +  |  -
VA Hard Dance Mania Vol 13 Mixed By Pulsedriver 2CD 2008 EGM

Anonymous and Free Direct Download 300GB+


Torrent info

Name:VA Hard Dance Mania Vol 13 Mixed By Pulsedriver 2CD 2008 EGM

Total Size: 197.70 MB

Magnet: Magnet Link

Seeds: 0

Leechers: 0

Stream: Watch Online @ Movie4u

Last Updated: 2010-07-29 00:54:59 (Update Now)

Torrent added: 2009-08-31 16:56:59



VPN For Torrents

Torrent Files List


CD1 (Size: 197.70 MB) (Files: 43)

 CD1

  (01) [Fridge vs The Hitmen] Angel.mp3

6.78 MB

  (02) [Lazard] I Am Alive (The Hitmen Rmx).mp3

7.87 MB

  (03) [Chemistry] We Are One 2008 (Megara vs DJ Lee Remix).mp3

6.23 MB

  (04) [Topmodelz] When Youre Looking Like That (Rob Mayth Remix).mp3

7.22 MB

  (05) [The Real Booty Babes] Played-A-Live.mp3

7.15 MB

  (06) [Speakerz] Time After Time.mp3

7.33 MB

  (07) [Dream Dance Alliance (DDA)] Spring Forward And Fall Behind.mp3

6.05 MB

  (08) [Barracuda] I Will Love Again.mp3

3.87 MB

  (09) [Pulsedriver] Koma (Reloaded) Splash vs Mikkas Remix).mp3

7.13 MB

  (10) [De-Grees vs Real Booty Babes] Apologize (Ti-Mo Remix).mp3

7.09 MB

  (11) [Solar Patrol] Shame (Pulsedriver Remix).mp3

4.70 MB

  (12) [Ultrabeat] Sure Feels Good.mp3

8.08 MB

  (13) [Bulldozer] Can U Feel The Vibe (Manox Remix).mp3

4.19 MB

  (14) [Erik Vee] Far Away (Raindropz! Remix).mp3

5.12 MB

  (15) [89'rs] Hold Me Now.mp3

5.40 MB

  (16) [Dedicated Frequency] Poison Like Sweat.mp3

3.77 MB

  (17) [Azora] The Heartache.mp3

5.43 MB

  [VA] Hard Dance Mania Vol 13 Mixed by Pulsedriver.cue

5.91 KB

  [VA] Hard Dance Mania Vol 13 Mixed by Pulsedriver.m3u

0.83 KB

  [VA] Hard Dance Mania Vol 13 Mixed by Pulsedriver.m3u8

0.84 KB

 CD2

  (01) [Deepforces] Wake Up.mp3

5.98 MB

  (02) [DJ Lee] Bitch (Club Mix).mp3

5.81 MB

  (03) [DJ Shog] Feel Me Through The Radio (Axel Coon Remix).mp3

7.32 MB

  (04) [Andy Jay Powell] Yesterday Becomes Tomorrow.mp3

5.05 MB

  (05) [Ferry Corsten] Brain Box.mp3

6.26 MB

  (06) [Pimp!Code] Raise Your Hero Up.mp3

5.81 MB

  (07) [Marco van Bassken] The Riddle (Topmodelz remix).mp3

6.32 MB

  (08) [Clubbticket] Believe In Love (DJ Gollum remix).mp3

3.31 MB

  (09) [Springstil] Springstil (Jeckyll & Hyde Remix).mp3

5.46 MB

  (10) [Skipmode] Every Single Day.mp3

4.02 MB

  (11) [Topmodelz] We're Going On Down.mp3

7.04 MB

  (12) [Rio & Juliano] Into The Night.mp3

4.66 MB

  (13) [Liz Kay] True faith (Cyrus Remix).mp3

5.36 MB

  (14) [Ole Van Dansk] Your Friends.mp3

5.74 MB

  (15) [Liz Meyer] All I Want.mp3

4.48 MB

  (16) [Punk Freakz] The Rebel.mp3

2.60 MB

  (17) [Ma.Bra vs Klubnoize] Action.mp3

3.46 MB

  (18) [Wezz & Fisher] Ultrablue.mp3

5.27 MB

  [VA] Hard Dance Mania Vol 13 Mixed by Pulsedriver.cue

5.82 KB

  [VA] Hard Dance Mania Vol 13 Mixed by Pulsedriver.m3u

0.77 KB

  [VA] Hard Dance Mania Vol 13 Mixed by Pulsedriver.m3u8

0.77 KB

 000-va-hard_dance_mania_vol_13_mixed_by_pulsedriver-2cd-2008-back.jpg

188.47 KB

 000-va-hard_dance_mania_vol_13_mixed_by_pulsedriver-2cd-2008-front.jpg

113.53 KB
 

Announce URL: http://tpb.tracker.thepiratebay.org:80/announce

Torrent description

TRACK 01 AUDIO

TITLE \"Angel\"

PERFORMER \"Fridge vs The Hitmen\"

INDEX 01 00:00:00

TRACK 02 AUDIO

TITLE \"I Am Alive (The Hitmen Rmx)\"

PERFORMER \"Lazard\"

INDEX 01 04:52:48

TRACK 03 AUDIO

TITLE \"We Are One 2008 (Megara vs DJ Lee Remix)\"

PERFORMER \"Chemistry\"

INDEX 01 10:22:16

TRACK 04 AUDIO

TITLE \"When Youre Looking Like That (Rob Mayth Remix)\"

PERFORMER \"Topmodelz\"

INDEX 01 15:51:60

TRACK 05 AUDIO

TITLE \"Played-A-Live\"

PERFORMER \"The Real Booty Babes\"

INDEX 01 20:33:15

TRACK 06 AUDIO

TITLE \"Time After Time\"

PERFORMER \"Speakerz\"

INDEX 01 25:45:01

TRACK 07 AUDIO

TITLE \"Spring Forward And Fall Behind\"

PERFORMER \"Dream Dance Alliance (DDA)\"

INDEX 01 30:08:52

TRACK 08 AUDIO

TITLE \"I Will Love Again\"

PERFORMER \"Barracuda\"

INDEX 01 34:18:63

TRACK 09 AUDIO

TITLE \"Koma (Reloaded) Splash vs Mikkas Remix)\"

PERFORMER \"Pulsedriver\"

INDEX 01 37:07:63

TRACK 10 AUDIO

TITLE \"Apologize (Ti-Mo Remix)\"

PERFORMER \"De-Grees vs Real Booty Babes\"

INDEX 01 42:22:15

TRACK 11 AUDIO

TITLE \"Shame (Pulsedriver Remix)\"

PERFORMER \"Solar Patrol\"

INDEX 01 47:19:50

TRACK 12 AUDIO

TITLE \"Sure Feels Good\"

PERFORMER \"Ultrabeat\"

INDEX 01 50:43:71

TRACK 13 AUDIO

TITLE \"Can U Feel The Vibe (Manox Remix)\"

PERFORMER \"Bulldozer\"

INDEX 01 56:10:27

TRACK 14 AUDIO

TITLE \"Far Away (Raindropz! Remix)\"

PERFORMER \"Erik Vee\"

INDEX 01 58:54:23

TRACK 15 AUDIO

TITLE \"Hold Me Now\"

PERFORMER \"89\'rs\"

INDEX 01 62:33:13

TRACK 16 AUDIO

TITLE \"Poison Like Sweat\"

PERFORMER \"Dedicated Frequency\"

INDEX 01 66:27:19

TRACK 17 AUDIO

TITLE \"The Heartache\"

PERFORMER \"Azora\"

INDEX 01 69:39:70



TRACK 01 AUDIO

TITLE \"Wake Up\"

PERFORMER \"Deepforces\"

INDEX 01 00:00:00

TRACK 02 AUDIO

TITLE \"Bitch (Club Mix)\"

PERFORMER \"DJ Lee\"

INDEX 01 04:19:22

TRACK 03 AUDIO

TITLE \"Feel Me Through The Radio (Axel Coon Remix)\"

PERFORMER \"DJ Shog\"

INDEX 01 08:36:15

TRACK 04 AUDIO

TITLE \"Yesterday Becomes Tomorrow\"

PERFORMER \"Andy Jay Powell\"

INDEX 01 13:53:71

TRACK 05 AUDIO

TITLE \"Brain Box\"

PERFORMER \"Ferry Corsten\"

INDEX 01 17:10:00

TRACK 06 AUDIO

TITLE \"Raise Your Hero Up\"

PERFORMER \"Pimp!Code\"

INDEX 01 21:40:32

TRACK 07 AUDIO

TITLE \"The Riddle (Topmodelz remix)\"

PERFORMER \"Marco van Bassken\"

INDEX 01 25:37:03

TRACK 08 AUDIO

TITLE \"Believe In Love (DJ Gollum remix)\"

PERFORMER \"Clubbticket\"

INDEX 01 30:09:10

TRACK 09 AUDIO

TITLE \"Springstil (Jeckyll & Hyde Remix)\"

PERFORMER \"Springstil\"

INDEX 01 32:24:26

TRACK 10 AUDIO

TITLE \"Every Single Day\"

PERFORMER \"Skipmode\"

INDEX 01 35:50:40

TRACK 11 AUDIO

TITLE \"We\'re Going On Down\"

PERFORMER \"Topmodelz\"

INDEX 01 38:22:49

TRACK 12 AUDIO

TITLE \"Into The Night\"

PERFORMER \"Rio & Juliano\"

INDEX 01 43:23:33

TRACK 13 AUDIO

TITLE \"True faith (Cyrus Remix)\"

PERFORMER \"Liz Kay\"

INDEX 01 46:59:60

TRACK 14 AUDIO

TITLE \"Your Friends\"

PERFORMER \"Ole Van Dansk\"

INDEX 01 50:46:21

TRACK 15 AUDIO

TITLE \"All I Want\"

PERFORMER \"Liz Meyer\"

INDEX 01 54:37:62

TRACK 16 AUDIO

TITLE \"The Rebel\"

PERFORMER \"Punk Freakz\"

INDEX 01 57:42:04

TRACK 17 AUDIO

TITLE \"Action\"

PERFORMER \"Ma.Bra vs Klubnoize\"

INDEX 01 59:55:46

TRACK 18 AUDIO

TITLE \"Ultrablue\"

PERFORMER \"Wezz & Fisher\"

INDEX 01 62:32:57

related torrents

Torrent name

health leech seeds Size
 


comments (0)

Main Menu