Comedy

Ramel Girl DVDRiP XViD SB0 megaups com

  • Download 5x Faster
  • Download torrent
  • Direct Download
  • Rate this torrent +  |  -
Ramel Girl DVDRiP XViD SB0 megaups com

Anonymous and Free Direct Download 300GB+


Torrent info

Name:Ramel Girl DVDRiP XViD SB0 megaups com

Total Size: 700.25 MB

Magnet: Magnet Link

Seeds: 0

Leechers: 0

Stream: Watch Online @ Movie4u

Last Updated: 2009-12-04 13:07:27 (Update Now)

Torrent added: 2009-08-31 16:49:20



VPN For Torrents

Torrent Files List


Please Disable DHT.txt (Size: 700.25 MB) (Files: 3)

 Please Disable DHT.txt

0.04 KB

 the ramel girl DVDRiP XViD SB0.nfo

5.05 KB

 the ramel girl DVDRiP XViD SB0_.avi

700.25 MB
 

Announce URL: http://megaups.com/announce.php?passkey=3152baba848a29d8842b93f78351de85

Torrent description

The Ramel Girl DVDRiP XViD SB0
*******************************************************************************

-------------------------------------------------------------------------------
General Information
-------------------------------------------------------------------------------
Type.................: Movie



Movie Information....: http://www.imdb.com/title/tt0806165/

-------------------------------------------------------------------------------
Post Information
-------------------------------------------------------------------------------
Posted by............: SB0

-------------------------------------------------------------------------------
Release Notes
-------------------------------------------------------------------------------
General
Complete name : the ramel girl DVDRiP XViD SB0_.avi
Format : AVI
Format/Info : Audio Video Interleave
File size : 700 MiB
Duration : 1h 42mn
Overall bit rate : 957 Kbps
Writing application : VirtualDubMod 1.5.4.1 (build 2178/release)
Writing library : VirtualDubMod build 2178/release

Video
Format : MPEG-4 Visual
Format profile : Streaming [email protected]
Format settings, BVOP : Yes
Format settings, QPel : No
Format settings, GMC : No warppoints
Format settings, Matrix : Custom
Codec ID : XVID
Codec ID/Hint : XviD
Duration : 1h 42mn
Bit rate : 804 Kbps
Width : 608 pixels
Height : 336 pixels
Display aspect ratio : 16/9
Frame rate : 23.976 fps
Resolution : 24 bits
Colorimetry : 4:2:0
Scan type : Progressive
Bits/(Pixel*Frame) : 0.164
Stream size : 588 MiB (84%)
Writing library : XviD 1.1.0 (UTC 2005-11-22)

Audio
Format : MPEG Audio
Format version : Version 1
Format profile : Layer 3
Codec ID : 55
Codec ID/Hint : MP3
Duration : 1h 42mn
Bit rate mode : Variable
Bit rate : 140 Kbps
Minimum bit rate : 32.0 Kbps
Channel(s) : 2 channels
Sampling rate : 48.0 KHz
Resolution : 16 bits
Stream size : 103 MiB (15%)
Alignment : Aligned on interleaves
Interleave, duration : 24 ms (0.58 video frame)
Interleave, preload duration : 131 ms
Writing library : LAME3.98b
Encoding settings : -m j -V 3 -q 0 -lowpass 18 --vbr-new -b 32

An American woman is stranded in Tokyo after breaking up with her boyfriend.
Searching for direction in life, she trains to be a râmen chef under a
tyrannical Japanese master.

related torrents

Torrent name

health leech seeds Size
 


comments (0)

Main Menu